Брюхо / Belly (Джулия Потт / Julia Pott) [2011, Великобритания, драма, анимация, короткий метр, HDRip-AVC] Original (Eng) + Sub (Rus)


 

[Цитировать]

Брюхо
Belly- Страна: Великобритания
Жанр: драма, анимация, короткий метр
Год выпуска: 2011
Продолжительность: 00:07:29
Перевод: Субтитры (koteboris)
Cубтитры: русские
Оригинальная аудиодорожка: английский
Режиссер: Джулия Потт / Julia PottВ ролях: Оливия Гёрни-Рэндалл / Olivia Gurney-Randall (Oscar), Корнелиус Кларк / Cornelius Clarke (Monster), Джозеф Тейт / Joseph Tate (Alex)
Описание: Грустный фильм о взрослении и расставании с воображаемыми друзьями. Фильм рассказывает фантасмагорическую историю о маленьком Оскаре. Несчастный случай уносит его старшего брата Алекса в океан. И теперь, чтобы спасти его, Оскару придется набраться мужества и смириться с другой непоправимой потерей…
Доп. информация: приз за лучшую выпускную студенческую работу Chicago Film Festival 2011; Специальный приз международного жюри Anilogue International Animation Festival 2011; приз Canal+ на Clermont Ferrand Film Festival 2012; приз за лучший европейский студенческий фильм Holland Animation Film Festival 2012; Специальный приз жюри за анимацию AFI Film Festival 2012; др. награды. Участник Sundance Film Festival 2012, всего более 100 МКФ.

Качество видео: HDRip-AVC
Формат видео: MKV
Видео: AVC (H.264), 1152x640 (16:9), 25 fps, ~2500 kbps avg, 0.136 bit/pixel
Аудио: AC3, 2 ch, 48 kHz, ~192.00 kbps avg
Формат субтитров: softsub (SSA/ASS)

Пример субтитров

Dialogue: 0,0:00:43.48,0:00:46.87,Default,,0,0,0,,БРЮХОDialogue: 0,0:00:50.73,0:00:51.95,Default,,0,0,0,,Пойду поплаваю.Dialogue: 0,0:00:52.15,0:00:53.15,Default,,0,0,0,,Я пойду с тобой.Dialogue: 0,0:00:53.35,0:00:55.28,Default,,0,0,0,,Нет, Оскар, ты еще маленький.Dialogue: 0,0:01:03.01,0:01:04.06,Default,,0,0,0,,Подожди, Алекс!Dialogue: 0,0:01:19.69,0:01:21.73,Default,,0,0,0,,Не волнуйся, я здесь.Dialogue: 0,0:02:03.41,0:02:04.50,Default,,0,0,0,,Мы должны его спасти.Dialogue: 0,0:02:05.80,0:02:07.00,Default,,0,0,0,,Я не хочу.Dialogue: 0,0:02:18.40,0:02:20.89,Default,,0,0,0,,Оскар, ты становишься тяжелым.Dialogue: 0,0:02:39.87,0:02:41.81,Default,,0,0,0,,Надеюсь, все обойдется.Dialogue: 0,0:02:48.33,0:02:55.89,Default,,0,0,0,,Извините... Извините, вы не видели\Nмоего брата? Его зовут Алекс.Dialogue: 0,0:02:56.09,0:03:01.58,Default,,0,0,0,,Алекс... Алекс...Dialogue: 0,0:03:05.39,0:03:15.80,Default,,0,0,0,,Да, я видел его...\NЯ чувствую его в своем брюхе...Dialogue: 0,0:03:25.99,0:03:30.04,Default,,0,0,0,,Прости, я просто ненавижу...Dialogue: 0,0:03:30.24,0:03:31.19,Default,,0,0,0,,Моего брата?Dialogue: 0,0:03:31.39,0:03:34.88,Default,,0,0,0,,Нет, не твоего брата,\Nа расстройство желудка.Dialogue: 0,0:03:35.80,0:03:37.01,Default,,0,0,0,,Да, уж...Dialogue: 0,0:03:38.13,0:03:44.88,Default,,0,0,0,,Если ты хочешь его вернуть,\Nу тебя всего лишь час времени.Dialogue: 0,0:03:47.22,0:03:50.84,Default,,0,0,0,,Надеюсь, ты найдешь, что ищешь.Dialogue: 0,0:04:17.07,0:04:18.40,Default,,0,0,0,,Слава Богу, вы здесь!

MediaInfo

Общее
Уникальный идентификатор : 175885329217668742192665572943995607708 (0x8452484059122A81B115F090C5B81A9C)
Полное имя : E:\My Torrents 2\[apreder]MINI_MOVIES_09\[apreder]MM_Belly(2012)HDRip.mkv
Формат : Matroska
Версия формата : Version 2
Размер файла : 145 Мбайт
Продолжительность : 7 м. 29 с.
Общий поток : 2702 Кбит/сек
Дата кодирования : UTC 2014-11-02 16:16:47
Программа кодирования : mkvmerge v7.3.0 ('Nouages') 64bit built on Oct 22 2014 18:53:34
Библиотека кодирования : libebml v1.3.0 + libmatroska v1.4.1
Видео
Идентификатор : 1
Формат : AVC
Формат/Информация : Advanced Video Codec
Профиль формата : High@L4.1
Параметр CABAC формата : Да
Параметр ReFrames формата : 11 кадров
Идентификатор кодека : V_MPEG4/ISO/AVC
Продолжительность : 7 м. 29 с.
Битрейт : 2500 Кбит/сек
Ширина : 1152 пикселя
Высота : 640 пикселей
Соотношение сторон : 16:9
Режим частоты кадров : Постоянный
Частота кадров : 25,000 кадров/сек
Цветовое пространство : YUV
Субдискретизация насыщенности : 4:2:0
Битовая глубина : 8 бит
Тип развёртки : Прогрессивная
Бит/(Пиксели*Кадры) : 0.136
Размер потока : 131 Мбайт (91%)
Библиотека кодирования : x264 core 142 r2431 ac76440
Настройки программы : cabac=1 / ref=11 / deblock=1:-1:-1 / analyse=0x3:0x133 / me=umh / subme=10 / psy=1 / psy_rd=1.00:0.15 / mixed_ref=1 / me_range=24 / chroma_me=1 / trellis=2 / 8x8dct=1 / cqm=0 / deadzone=21,11 / fast_pskip=1 / chroma_qp_offset=-3 / threads=6 / lookahead_threads=1 / sliced_threads=0 / nr=0 / decimate=1 / interlaced=0 / bluray_compat=0 / constrained_intra=0 / bframes=8 / b_pyramid=2 / b_adapt=2 / b_bias=0 / direct=3 / weightb=1 / open_gop=0 / weightp=2 / keyint=250 / keyint_min=25 / scenecut=40 / intra_refresh=0 / rc_lookahead=60 / rc=2pass / mbtree=1 / bitrate=2500 / ratetol=1.0 / qcomp=0.60 / qpmin=0 / qpmax=69 / qpstep=4 / cplxblur=20.0 / qblur=0.5 / vbv_maxrate=62500 / vbv_bufsize=78125 / nal_hrd=none / filler=0 / ip_ratio=1.40 / aq=1:1.00
Default : Да
Forced : Нет
Аудио
Идентификатор : 2
Формат : AC-3
Формат/Информация : Audio Coding 3
Расширение режима : CM (complete main)
Параметр Endianness формата : Big
Идентификатор кодека : A_AC3
Продолжительность : 7 м. 29 с.
Вид битрейта : Постоянный
Битрейт : 192 Кбит/сек
Каналы : 2 канала
Расположение каналов : Front: L R
Частота : 48,0 КГц
Битовая глубина : 16 бит
Метод сжатия : С потерями
Размер потока : 10,3 Мбайт (7%)
Язык : English
Default : Да
Forced : Нет
Текст
Идентификатор : 3
Формат : ASS
Идентификатор кодека : S_TEXT/ASS
Идентификатор кодека/Информация : Advanced Sub Station Alpha
Метод сжатия : Без потерь
Язык : Russian
Default : Да
Forced : Нет

Скриншот c названием фильма

Скриншоты

Резервные скриншоты

-[1'873]



Показать сообщения:    

Текущее время: 05-Дек 05:30

Часовой пояс: UTC + 3


Вы не можете начинать темы
Вы не можете отвечать на сообщения
Вы не можете редактировать свои сообщения
Вы не можете удалять свои сообщения
Вы не можете голосовать в опросах
Вы не можете прикреплять файлы к сообщениям
Вы не можете скачивать файлы