Страна возрождения / Старая новая земля / Обновленная древняя страна / Altneuland / Old New Land (Сариэла Кеслези / Sariel Keslasi) [2012, Израиль, аллегория, утопия, анимация, экранизация, короткий метр, HDRip-AVC]


 

[Цитировать]

Страна возрождения
Altneuland- Страна: Израиль
Жанр: аллегория, утопия, анимация, экранизация, короткий метр
Год выпуска: 2012
Продолжительность: 00:06:32
Перевод: Не требуется
Cубтитры: нет
Оригинальная аудиодорожка: музыкальное сопровождение
Режиссер: Сариэла Кеслези / Sariel Keslasi
В ролях: анимацияОписание: Дипломная работа выпускницы Bezalel Academy of Arts and Design в Иерусалиме, приурочена к 110-летию написания одноименного романа Теодора Герцля / Herzl Tivadar (в русском переводе "Страна возрождения", собр. соч. в перев. на русский яз. изд. в 1905 г.; в переводе на иврит Н. Соколова "Тель-Авив", 1903). Используя сюрреалистическую аллегорию, фильм пытается справиться с крахом мечты Герцля и стремится подчеркнуть ощущение абсурда и нестабильности индивидуального опыта, как личности в израильском обществе.
В своём утопическом романе на немецком языке "Altneuland" (1902) австрийский писатель Теодор Герцль создал идеалистическую картину будущего еврейского государства. Здесь он сформулировал эскиз политического и общественного строя еврейского государства в Палестине. В переводе на иврит роман назывался Тель-Авив (то есть "весенний холм", название библейского поселения); название будущего города Тель-Авив было навеяно романом Герцля.
Доп. информация: 2-е место в категории студенческих работ Asif Animation Film Festival 2012; приз за лучшую студенческую работу Anifest (Teplice, Czech republic) 2013. Участник Festival de Annecy 2013; Short Film Corner - Festival de Cannes 2013.

Качество видео: HDRip-AVC
Формат видео: MKV
Видео: AVC (H.264), 1152x640 (16:9), 25 fps, ~2500 kbps avg, 0.136 bit/pixel
Аудио: AC3, 2 ch, 48 kHz, ~192.00 kbps avg

MediaInfo

Общее
Уникальный идентификатор : 185635734448796766114441203932511852101 (0x8BA824584C5EE3E7A611522C6027D645)
Полное имя : E:\My Torrents 2\[apreder]MINI_MOVIES_09\[apreder]MM_Altneuland(2012)HDRip.mkv
Формат : Matroska
Версия формата : Version 2
Размер файла : 126 Мбайт
Продолжительность : 6 м. 32 с.
Общий поток : 2703 Кбит/сек
Дата кодирования : UTC 2014-10-30 17:32:41
Программа кодирования : mkvmerge v7.3.0 ('Nouages') 64bit built on Oct 22 2014 18:53:34
Библиотека кодирования : libebml v1.3.0 + libmatroska v1.4.1
Видео
Идентификатор : 1
Формат : AVC
Формат/Информация : Advanced Video Codec
Профиль формата : High@L4.1
Параметр CABAC формата : Да
Параметр ReFrames формата : 11 кадров
Идентификатор кодека : V_MPEG4/ISO/AVC
Продолжительность : 6 м. 32 с.
Битрейт : 2500 Кбит/сек
Ширина : 1152 пикселя
Высота : 640 пикселей
Соотношение сторон : 16:9
Режим частоты кадров : Постоянный
Частота кадров : 25,000 кадров/сек
Цветовое пространство : YUV
Субдискретизация насыщенности : 4:2:0
Битовая глубина : 8 бит
Тип развёртки : Прогрессивная
Бит/(Пиксели*Кадры) : 0.136
Размер потока : 115 Мбайт (91%)
Библиотека кодирования : x264 core 142 r2431 ac76440
Настройки программы : cabac=1 / ref=11 / deblock=1:-1:-1 / analyse=0x3:0x133 / me=umh / subme=10 / psy=1 / psy_rd=1.00:0.15 / mixed_ref=1 / me_range=24 / chroma_me=1 / trellis=2 / 8x8dct=1 / cqm=0 / deadzone=21,11 / fast_pskip=1 / chroma_qp_offset=-3 / threads=6 / lookahead_threads=1 / sliced_threads=0 / nr=0 / decimate=1 / interlaced=0 / bluray_compat=0 / constrained_intra=0 / bframes=8 / b_pyramid=2 / b_adapt=2 / b_bias=0 / direct=3 / weightb=0 / open_gop=0 / weightp=2 / keyint=250 / keyint_min=25 / scenecut=40 / intra_refresh=0 / rc_lookahead=60 / rc=2pass / mbtree=1 / bitrate=2500 / ratetol=1.0 / qcomp=0.60 / qpmin=0 / qpmax=69 / qpstep=4 / cplxblur=20.0 / qblur=0.5 / vbv_maxrate=62500 / vbv_bufsize=78125 / nal_hrd=none / filler=0 / ip_ratio=1.40 / aq=1:1.00
Default : Да
Forced : Нет
Аудио
Идентификатор : 2
Формат : AC-3
Формат/Информация : Audio Coding 3
Расширение режима : CM (complete main)
Параметр Endianness формата : Big
Идентификатор кодека : A_AC3
Продолжительность : 6 м. 32 с.
Вид битрейта : Постоянный
Битрейт : 192 Кбит/сек
Каналы : 2 канала
Расположение каналов : Front: L R
Частота : 48,0 КГц
Битовая глубина : 16 бит
Метод сжатия : С потерями
Размер потока : 8,97 Мбайт (7%)
Default : Да
Forced : Нет

Скриншот c названием фильма

Скриншоты

Резервные скриншоты

-[1'860]



Показать сообщения:    

Текущее время: 04-Дек 13:17

Часовой пояс: UTC + 3


Вы не можете начинать темы
Вы не можете отвечать на сообщения
Вы не можете редактировать свои сообщения
Вы не можете удалять свои сообщения
Вы не можете голосовать в опросах
Вы не можете прикреплять файлы к сообщениям
Вы не можете скачивать файлы