Белая клубника / Blanche fraise (Фредерик Тремблай / Frédérick Tremblay) [2011, Канада, авторская анимация, WEBRip]


 

[Цитировать]

Белая клубника / Blanche fraise
Страна: Канада
Жанр: авторская анимация
Год выпуска: 2011
Продолжительность: 00:16:45
Перевод: не требуется
Cубтитры: нет
Режиссёр: Фредерик Тремблай / Frédérick Tremblay
Описание: Очень своеобразный "лесной нуар".
Мучимая голодом зайчиха ждёт своего мужа, ушедшего на поиски пропитания. Достать еду не так просто, но голод не единственная мука, которую предстоит испытать супругам в тёмном лесу, где растёт ядовитая белая клубника...
Доп.информация: Best Narrative Short Film - Ottawa Animation Film Festival (2011)
Grand Prize NFB - Les Sommets de l'Animation de Montréal (2011)
Качество видео: WEBRip
Формат видео: AVI
Видео: 1503 kbps, 624х352 (16:9), 23.976 fps, MPEG-4 Visual (XviD)
Аудио: 128 kbps, 44.1 kHz, 2 channels, MPEG Audio (MP3)

MediaInfo

General
Complete name : Blanche fraise (2011).avi
Format : AVI
Format/Info : Audio Video Interleave
File size : 197 MiB
Duration : 16mn 45s
Overall bit rate : 1 641 Kbps
Writing application : VirtualDubMod 1.5.10.3 (build 2550/release)
Writing library : VirtualDubMod build 2550/release
Video
ID : 0
Format : MPEG-4 Visual
Format profile : Advanced Simple@L5
Format settings, BVOP : 2
Format settings, QPel : No
Format settings, GMC : No warppoints
Format settings, Matrix : Custom
Codec ID : XVID
Codec ID/Hint : XviD
Duration : 16mn 45s
Bit rate : 1 503 Kbps
Width : 624 pixels
Height : 352 pixels
Display aspect ratio : 16:9
Frame rate : 23.976 fps
Color space : YUV
Chroma subsampling : 4:2:0
Bit depth : 8 bits
Scan type : Progressive
Compression mode : Lossy
Bits/(Pixel*Frame) : 0.285
Stream size : 180 MiB (92%)
Writing library : XviD 65
Audio
ID : 1
Format : MPEG Audio
Format version : Version 1
Format profile : Layer 3
Mode : Joint stereo
Mode extension : MS Stereo
Codec ID : 55
Codec ID/Hint : MP3
Duration : 16mn 45s
Bit rate mode : Constant
Bit rate : 128 Kbps
Channel(s) : 2 channels
Sampling rate : 44.1 KHz
Compression mode : Lossy
Stream size : 15.3 MiB (8%)
Alignment : Split accross interleaves
Interleave, duration : 42 ms (1.00 video frame)
Interleave, preload duration : 500 ms
Writing library : LAME3.99r
Encoding settings : -m j -V 4 -q 3 -lowpass 17 -b 128

Скриншот c названием фильма

Скриншоты




Показать сообщения:    

Текущее время: 06-Дек 11:14

Часовой пояс: UTC + 3


Вы не можете начинать темы
Вы не можете отвечать на сообщения
Вы не можете редактировать свои сообщения
Вы не можете удалять свои сообщения
Вы не можете голосовать в опросах
Вы не можете прикреплять файлы к сообщениям
Вы не можете скачивать файлы