Очумелов (Алексей Демин) [2009, Россия, сатира, экранизация, авторская анимация, короткий метр, SATRip-AVC]


 

[Цитировать]

Очумелов- Страна: Россия
Жанр: сатира, экранизация, авторская анимация, короткий метр
Год выпуска: 2009
Продолжительность: 00:13:27
Перевод: Не требуется
Cубтитры: нет
Режиссер: Алексей ДёминВ ролях: Игорь Ильинский (озвучивание, использована запись 1952 года)
Описание: ОЧУМЕЛОВ - герой рассказа А. П. Чехова "Хамелеон" (1884). Образ Очумелова представляет собой сатирическое обобщение, достигшее символа. Основные черты "хамелеона" - подхалимство и заискивание перед высшими чинами и пренебрежение, жестокость по отношению к тем, кто ниже его на социальной лестнице. К Очумелову, полицейскому надзирателю, обращается золотых дел мастер Хрюкин с просьбой наказать укусившего его щенка. Пытаясь выяснить, бродячая это собака или нет, Очумелов мгновенно переходит от угодничества к самоуправству, от самодурства к холопству в зависимости от того, кем является предполагаемый владелец щенка, - генерал ли это Жигалов, некто безвестный или брат генерала. Момент, когда Очумелов узнает, что собака принадлежит брату генерала, очень показателен. "Да разве братец ихний приехали?" - заискивающе спрашивает Очумелов у генеральского повара, и "все лицо его заливается улыбкой умиления". (A26P1993)
Награды: Диплом жюри "За уникальный авторский почерк в анимации" V Международного фестиваля короткометражного кино и анимации OPEN CINEMA (Санкт-Петербург) 2009; Диплом XVI Международного фестиваля анимационных фильмов "Крок" 2009 "За оригинальную экранизацию классической литературы"; премия "Ника" 2010 за лучший анимационный фильм; 4 награды XIV Открытого российского фестиваля анимационного кинофестиваля в Суздале 2010 (лучшая режиссура; лучшая драматургия; приз Гильдии критиков и киноведов; 3-е место в профессиональном рейтинге участников и гостей фестиваля).

Качество видео: SATRip-AVC
Формат видео: MKV
Видео: AVC (H.264), 640x384, 25 fps, ~1500 kbps avg, 0.244 bit/pixel
Аудио: AC3, 2 ch, 48 kHz, ~192.00 kbps avg

MediaInfo

Общее
Уникальный идентификатор : 209356792394155968574275995259088465554 (0x9D80A6CC320EFABB98C237887BE0EE92)
Полное имя : E:\My Torrents 2\[apreder]MINI_MOVIES_09\[apreder]MM_Ochumelov(2009)SATRip.mkv
Формат : Matroska
Версия формата : Version 2
Размер файла : 163 Мбайт
Продолжительность : 13 м.
Общий поток : 1696 Кбит/сек
Дата кодирования : UTC 2014-10-17 11:48:13
Программа кодирования : mkvmerge v7.2.0 ('On Every Street') 64bit built on Sep 13 2014 15:52:10
Библиотека кодирования : libebml v1.3.0 + libmatroska v1.4.1
Видео
Идентификатор : 1
Формат : AVC
Формат/Информация : Advanced Video Codec
Профиль формата : High@L4.1
Параметр CABAC формата : Да
Параметр ReFrames формата : 16 кадров
Идентификатор кодека : V_MPEG4/ISO/AVC
Продолжительность : 13 м.
Битрейт : 1500 Кбит/сек
Ширина : 640 пикселей
Высота : 384 пикселя
Соотношение сторон : 1,667
Режим частоты кадров : Постоянный
Частота кадров : 25,000 кадров/сек
Цветовое пространство : YUV
Субдискретизация насыщенности : 4:2:0
Битовая глубина : 8 бит
Тип развёртки : Прогрессивная
Бит/(Пиксели*Кадры) : 0.244
Размер потока : 142 Мбайт (87%)
Библиотека кодирования : x264 core 142 r2431 ac76440
Настройки программы : cabac=1 / ref=16 / deblock=1:-1:-1 / analyse=0x3:0x133 / me=umh / subme=10 / psy=1 / psy_rd=1.00:0.15 / mixed_ref=1 / me_range=24 / chroma_me=1 / trellis=2 / 8x8dct=1 / cqm=0 / deadzone=21,11 / fast_pskip=1 / chroma_qp_offset=-3 / threads=6 / lookahead_threads=1 / sliced_threads=0 / nr=0 / decimate=1 / interlaced=0 / bluray_compat=0 / constrained_intra=0 / bframes=8 / b_pyramid=2 / b_adapt=2 / b_bias=0 / direct=3 / weightb=0 / open_gop=0 / weightp=2 / keyint=250 / keyint_min=25 / scenecut=40 / intra_refresh=0 / rc_lookahead=60 / rc=2pass / mbtree=1 / bitrate=1500 / ratetol=1.0 / qcomp=0.60 / qpmin=0 / qpmax=69 / qpstep=4 / cplxblur=20.0 / qblur=0.5 / vbv_maxrate=62500 / vbv_bufsize=78125 / nal_hrd=none / filler=0 / ip_ratio=1.40 / aq=1:1.00
Default : Да
Forced : Нет
Аудио
Идентификатор : 2
Формат : AC-3
Формат/Информация : Audio Coding 3
Расширение режима : CM (complete main)
Параметр Endianness формата : Big
Идентификатор кодека : A_AC3
Продолжительность : 13 м.
Вид битрейта : Постоянный
Битрейт : 192 Кбит/сек
Каналы : 2 канала
Расположение каналов : Front: L R
Частота : 48,0 КГц
Битовая глубина : 16 бит
Метод сжатия : С потерями
Размер потока : 18,5 Мбайт (11%)
Язык : Russian
Default : Да
Forced : Нет

Скриншот c названием фильма

Скриншоты

Резервные скриншоты

-[465]



Показать сообщения:    

Текущее время: 09-Дек 14:34

Часовой пояс: UTC + 3


Вы не можете начинать темы
Вы не можете отвечать на сообщения
Вы не можете редактировать свои сообщения
Вы не можете удалять свои сообщения
Вы не можете голосовать в опросах
Вы не можете прикреплять файлы к сообщениям
Вы не можете скачивать файлы