Невеста / Nevesta (Борислав Сайтинац / Borislav Sajtinac) [1971, Югославия, авторская анимация, сюрреализм, VHSRip]


 

[Цитировать]

Невеста / Nevesta
Страна: Югославия
Жанр: авторская анимация, сюрреализм
Год выпуска: 1971
Продолжительность: 00:08:14
Перевод: не требуется
Cубтитры: нет
Режиссёр: Борислав Сайтинац / Borislav Sajtinac
Описание: Старуха в подвенечном платье сидит на лавочке и поочерёдно отвергает сватающихся к ней женихов. Оно и не удивительно: женихи - один другого несуразней.
Доп. информация: Гран-при на фестивале в Анси (1971)
Золотая медаль на фестивале в Белграде (1971)
Приз на фестивале в Оберхаузене (1971)
Качество видео: VHSRip
Формат видео: AVI
Видео: 2158 kbps, 672х512 (4:3), 25.000 fps, MPEG-4 Visual (XviD)
Аудио: 128 kbps, 44.1 kHz, 2 channels, MPEG Audio (MP3)

MediaInfo

General
Complete name : Nevesta (1971).avi
Format : AVI
Format/Info : Audio Video Interleave
File size : 135 MiB
Duration : 8mn 14s
Overall bit rate : 2 296 Kbps
Writing application : VirtualDubMod 1.5.10.3 (build 2550/release)
Writing library : VirtualDubMod build 2550/release
Video
ID : 0
Format : MPEG-4 Visual
Format profile : Advanced Simple@L5
Format settings, BVOP : 2
Format settings, QPel : No
Format settings, GMC : No warppoints
Format settings, Matrix : Custom
Codec ID : XVID
Codec ID/Hint : XviD
Duration : 8mn 14s
Bit rate : 2 158 Kbps
Width : 672 pixels
Height : 512 pixels
Display aspect ratio : 4:3
Frame rate : 25.000 fps
Color space : YUV
Chroma subsampling : 4:2:0
Bit depth : 8 bits
Scan type : Progressive
Compression mode : Lossy
Bits/(Pixel*Frame) : 0.251
Stream size : 127 MiB (94%)
Writing library : XviD 65
Audio
ID : 1
Format : MPEG Audio
Format version : Version 1
Format profile : Layer 3
Mode : Joint stereo
Mode extension : MS Stereo
Codec ID : 55
Codec ID/Hint : MP3
Duration : 8mn 14s
Bit rate mode : Constant
Bit rate : 128 Kbps
Channel(s) : 2 channels
Sampling rate : 44.1 KHz
Compression mode : Lossy
Stream size : 7.55 MiB (6%)
Alignment : Split accross interleaves
Interleave, duration : 40 ms (1.00 video frame)
Interleave, preload duration : 500 ms
Writing library : LAME3.99r
Encoding settings : -m j -V 4 -q 3 -lowpass 17 -b 128

Скриншот c названием фильма

Скриншоты




Показать сообщения:    

Текущее время: 06-Дек 13:16

Часовой пояс: UTC + 3


Вы не можете начинать темы
Вы не можете отвечать на сообщения
Вы не можете редактировать свои сообщения
Вы не можете удалять свои сообщения
Вы не можете голосовать в опросах
Вы не можете прикреплять файлы к сообщениям
Вы не можете скачивать файлы