Герольду здесь не место / Kein Platz fur Gerold / No Room for Gerold (Даниель Ноке / Daniel Nocke) [2006, Германия, гротеск, черный юмор, 3D анимация, короткий метр, DVDRip-AVC] DVO + Sub Eng + Original Ger


 

[Цитировать]

Герольду здесь не место
Kein Platz für Gerold- Страна: Германия
Жанр: гротеск, черный юмор, 3D анимация, короткий метр
Год выпуска: 2006
Продолжительность: 00:04:50
Перевод: Профессиональный (двухголосый закадровый)
Cубтитры: английские
Оригинальная аудиодорожка: немецкий
Режиссер: Даниель Ноке / Daniel NockeВ ролях: Даниель Ноке / Daniel Nocke (Anrufer, voice), Девид Страйзов / Devid Striesow (Gerold, voice), Ганс-Йохен Вагнер / Hans-Jochen Wagner (Roger, voice), Нина Вейнигер / Nina Weniger (Ellen, voice), Аниан Цольнер / Anian Zollner (Armin, voice)
Описание: После 10 лет проживания в одной квартире крокодил Герольд отвергнут сообществом из-за занявшей его комнату антилопы Эллен…
Доп. информация: Авторские вшитые английские субтитры.
Награды: приз "Short Tiger" - Filmförderungsanstalt Berlin 2006; приз за особые достижения в компьютерной анимации Ars Electronica (Linz, Austria) 2006; приз за лучшую анимацию Eksjo Animation Festival (Sweden) 2007; приз за лучшее воплощение характера в анимационных персонажах Platform Festival (Portland, USA) 2007; Почетный приз Just for Laughs Festival (Montreal, Canada) 2007; номинация на приз "Кристалл" за лучшую короткометражку Annecy International Animated Film Festival 2006; др. награды.

Качество видео: DVDRip
Формат видео: MKV
Видео: AVC (H.264), 720x544, 25 fps, ~1500 kbps avg, 0.153 bit/pixel
Аудио 1: Русский (AC3, 2 ch, 48 kHz, ~192.00 kbps avg)
Аудио 2: Немецкий (AC3, 2 ch, 48 kHz, ~192.00 kbps avg)
Формат субтитров: hardsub (неотключаемые)

MediaInfo

Общее
Уникальный идентификатор : 231550628346107578001783044118803180170 (0xAE3307648173B844B8D3B923585CEA8A)
Полное имя : E:\My Torrents 2\[apreder]MINI_MOVIES_09\[apreder]MM_Kein_Platz_fur_Gerold(2006)DVDRip.mkv
Формат : Matroska
Версия формата : Version 2
Размер файла : 66,0 Мбайт
Продолжительность : 4 м. 50 с.
Общий поток : 1908 Кбит/сек
Дата кодирования : UTC 2014-10-04 11:44:20
Программа кодирования : mkvmerge v7.2.0 ('On Every Street') 64bit built on Sep 13 2014 15:52:10
Библиотека кодирования : libebml v1.3.0 + libmatroska v1.4.1
Видео
Идентификатор : 1
Формат : AVC
Формат/Информация : Advanced Video Codec
Профиль формата : High@L4.1
Параметр CABAC формата : Да
Параметр ReFrames формата : 16 кадров
Идентификатор кодека : V_MPEG4/ISO/AVC
Продолжительность : 4 м. 50 с.
Битрейт : 1500 Кбит/сек
Ширина : 720 пикселей
Высота : 544 пикселя
Соотношение сторон : 4:3
Режим частоты кадров : Постоянный
Частота кадров : 25,000 кадров/сек
Цветовое пространство : YUV
Субдискретизация насыщенности : 4:2:0
Битовая глубина : 8 бит
Тип развёртки : Прогрессивная
Бит/(Пиксели*Кадры) : 0.153
Размер потока : 51,4 Мбайт (78%)
Библиотека кодирования : x264 core 142 r2431 ac76440
Настройки программы : cabac=1 / ref=16 / deblock=1:-1:-1 / analyse=0x3:0x133 / me=umh / subme=10 / psy=1 / psy_rd=1.00:0.15 / mixed_ref=1 / me_range=24 / chroma_me=1 / trellis=2 / 8x8dct=1 / cqm=0 / deadzone=21,11 / fast_pskip=1 / chroma_qp_offset=-3 / threads=6 / lookahead_threads=1 / sliced_threads=0 / nr=0 / decimate=1 / interlaced=0 / bluray_compat=0 / constrained_intra=0 / bframes=8 / b_pyramid=2 / b_adapt=2 / b_bias=0 / direct=3 / weightb=0 / open_gop=0 / weightp=2 / keyint=250 / keyint_min=25 / scenecut=40 / intra_refresh=0 / rc_lookahead=60 / rc=2pass / mbtree=1 / bitrate=1500 / ratetol=1.0 / qcomp=0.60 / qpmin=0 / qpmax=69 / qpstep=4 / cplxblur=20.0 / qblur=0.5 / vbv_maxrate=62500 / vbv_bufsize=78125 / nal_hrd=none / filler=0 / ip_ratio=1.40 / aq=1:1.00
Default : Да
Forced : Нет
Аудио #1
Идентификатор : 2
Формат : AC-3
Формат/Информация : Audio Coding 3
Расширение режима : CM (complete main)
Параметр Endianness формата : Big
Идентификатор кодека : A_AC3
Продолжительность : 4 м. 50 с.
Вид битрейта : Постоянный
Битрейт : 192 Кбит/сек
Каналы : 2 канала
Расположение каналов : Front: L R
Частота : 48,0 КГц
Битовая глубина : 16 бит
Метод сжатия : С потерями
Размер потока : 6,64 Мбайт (10%)
Язык : Russian
Default : Да
Forced : Нет
Аудио #2
Идентификатор : 3
Формат : AC-3
Формат/Информация : Audio Coding 3
Расширение режима : CM (complete main)
Параметр Endianness формата : Big
Идентификатор кодека : A_AC3
Продолжительность : 4 м. 50 с.
Вид битрейта : Постоянный
Битрейт : 192 Кбит/сек
Каналы : 2 канала
Расположение каналов : Front: L R
Частота : 48,0 КГц
Битовая глубина : 16 бит
Метод сжатия : С потерями
Размер потока : 6,64 Мбайт (10%)
Язык : German
Default : Нет
Forced : Нет

Скриншот c названием фильма

Скриншоты

Резервные скриншоты

-[1'776]



Показать сообщения:    

Текущее время: 05-Дек 03:30

Часовой пояс: UTC + 3


Вы не можете начинать темы
Вы не можете отвечать на сообщения
Вы не можете редактировать свои сообщения
Вы не можете удалять свои сообщения
Вы не можете голосовать в опросах
Вы не можете прикреплять файлы к сообщениям
Вы не можете скачивать файлы