Лес / Forest (Эллисон Шульник / Allison Schulnik) [2009, США, экспериментальный, научная фантастика, анимация, короткий метр, PDTVRip-AVC] Original (Eng) + Sub (Rus)


 

[Цитировать]

Лес
Forest- Страна: США
Жанр: экспериментальный, научная фантастика, анимация, короткий метр
Год выпуска: 2009
Продолжительность: 00:04:23
Перевод: Субтитры (ralf124c41+, корректура koteboris)
Cубтитры: русские
Оригинальная аудиодорожка: английский
Режиссер: Эллисон Шульник / Allison Schulnik
В ролях: анимацияОписание: В мистическом мире художника, скульптора и аниматора из Калифорнии Эллисон Шульник обитают клоуны-бродяги, опоссумы, бешеные обезьяны и другие, не менее интересные, существа… Сквозь мягкие цвета и вымышленных героев Эллисон рассказывает о психологии человека, его волнениях и проблемах.
"Мои персонажи могут месяцами, а то и годами преследовать меня в моем воображении, пока не докажут, что пора подарить им вечную жизнь на картинах", - призналась однажды Эллисон.
Обросший бродяга в альтернативной реальности сталкивается с видоизмененной версией себя самого…
Звучит песня Ready, Able индии-фолк-группы из Бруклина Grizzly Bear из альбома Veckatimest (2009).
Доп. информация: Награда за 2-е место в категории "Лучшее музыкальное видео" SXSW Film Conference and Festival, Austin 2010.

Качество видео: PDTVRip
Формат видео: MKV
Видео: AVC (H.264), 720x400, 24 fps, ~1500 kbps avg, 0.217 bit/pixel
Аудио: AC3, 2 ch, 48 kHz, ~192.00 kbps avg
Формат субтитров: softsub (SRT)

Пример субтитров

100:00:03,528 --> 00:00:05,365ЛЕС
200:00:25,686 --> 00:00:29,040Я готов с этим покончить,
300:00:29,867 --> 00:00:32,619и мне это удастся.
400:00:34,791 --> 00:00:38,079Закрепим решение поцелуем.
500:00:39,423 --> 00:00:42,061Может, меня бросит в дрожь,
600:00:44,206 --> 00:00:52,036когда, выйдя во двор, я увижу,
700:00:53,456 --> 00:01:02,111как исчезают мои следы на снегу.
800:01:14,042 --> 00:01:17,188Призрак пришел на встречу,
900:01:18,477 --> 00:01:21,361а совсем не ради мести.
1000:01:23,149 --> 00:01:26,536Можешь проверить это по моим
1100:01:27,994 --> 00:01:30,710ненаписанным вопоминаниям.
1200:01:32,544 --> 00:01:39,185Пять лет, полученных в кредит...
1300:01:39,385 --> 00:01:49,726Я готов, я могусделать собственный выбор.
1400:02:23,862 --> 00:02:25,928Каждый идет своим путем.
1500:02:26,128 --> 00:02:30,588Знай:что сделано, то сделано...
1600:02:30,788 --> 00:02:32,785Каждый идет своим путем.
1700:02:32,985 --> 00:02:37,462Знай:что сделано, то сделано...
1800:02:37,662 --> 00:02:39,414Каждый идет своим путем.
1900:02:39,614 --> 00:02:44,341Знай:что сделано, то сделано...
2000:02:44,541 --> 00:02:46,651Каждый идет своим путем.

MediaInfo

Общее
Уникальный идентификатор : 228674738464126264601512227101327275786 (0xAC092712F9CF5CCDA6D66EE17FB4B70A)
Полное имя : E:\My Torrents 2\[apreder]MINI_MOVIES_09\[apreder]MM_Forest(2009)PDTVRip.mkv
Формат : Matroska
Версия формата : Version 2
Размер файла : 54,7 Мбайт
Продолжительность : 4 м. 31 с.
Общий поток : 1694 Кбит/сек
Дата кодирования : UTC 2014-09-28 12:27:55
Программа кодирования : mkvmerge v7.2.0 ('On Every Street') 64bit built on Sep 13 2014 15:52:10
Библиотека кодирования : libebml v1.3.0 + libmatroska v1.4.1
Видео
Идентификатор : 1
Формат : AVC
Формат/Информация : Advanced Video Codec
Профиль формата : High@L4.1
Параметр CABAC формата : Да
Параметр ReFrames формата : 16 кадров
Идентификатор кодека : V_MPEG4/ISO/AVC
Продолжительность : 4 м. 31 с.
Битрейт : 1500 Кбит/сек
Ширина : 720 пикселей
Высота : 400 пикселей
Соотношение сторон : 16:9
Режим частоты кадров : Постоянный
Частота кадров : 24,000 кадра/сек
Цветовое пространство : YUV
Субдискретизация насыщенности : 4:2:0
Битовая глубина : 8 бит
Тип развёртки : Прогрессивная
Бит/(Пиксели*Кадры) : 0.217
Размер потока : 47,4 Мбайт (87%)
Библиотека кодирования : x264 core 142 r2431 ac76440
Настройки программы : cabac=1 / ref=16 / deblock=1:-1:-1 / analyse=0x3:0x133 / me=umh / subme=10 / psy=1 / psy_rd=1.00:0.15 / mixed_ref=1 / me_range=24 / chroma_me=1 / trellis=2 / 8x8dct=1 / cqm=0 / deadzone=21,11 / fast_pskip=1 / chroma_qp_offset=-3 / threads=6 / lookahead_threads=1 / sliced_threads=0 / nr=0 / decimate=1 / interlaced=0 / bluray_compat=0 / constrained_intra=0 / bframes=8 / b_pyramid=2 / b_adapt=2 / b_bias=0 / direct=3 / weightb=0 / open_gop=0 / weightp=2 / keyint=240 / keyint_min=24 / scenecut=40 / intra_refresh=0 / rc_lookahead=60 / rc=2pass / mbtree=1 / bitrate=1500 / ratetol=1.0 / qcomp=0.60 / qpmin=0 / qpmax=69 / qpstep=4 / cplxblur=20.0 / qblur=0.5 / vbv_maxrate=62500 / vbv_bufsize=78125 / nal_hrd=none / filler=0 / ip_ratio=1.40 / aq=1:1.00
Default : Да
Forced : Нет
Аудио
Идентификатор : 2
Формат : AC-3
Формат/Информация : Audio Coding 3
Расширение режима : CM (complete main)
Параметр Endianness формата : Big
Идентификатор кодека : A_AC3
Продолжительность : 4 м. 31 с.
Вид битрейта : Постоянный
Битрейт : 192 Кбит/сек
Каналы : 2 канала
Расположение каналов : Front: L R
Частота : 48,0 КГц
Битовая глубина : 16 бит
Метод сжатия : С потерями
Размер потока : 6,20 Мбайт (11%)
Язык : English
Default : Да
Forced : Нет
Текст
Идентификатор : 3
Формат : UTF-8
Идентификатор кодека : S_TEXT/UTF8
Идентификатор кодека/Информация : UTF-8 Plain Text
Язык : Russian
Default : Да
Forced : Нет

Скриншот c названием фильма

Скриншоты

Резервные скриншоты

-[1'762]



Показать сообщения:    

Текущее время: 09-Дек 20:31

Часовой пояс: UTC + 3


Вы не можете начинать темы
Вы не можете отвечать на сообщения
Вы не можете редактировать свои сообщения
Вы не можете удалять свои сообщения
Вы не можете голосовать в опросах
Вы не можете прикреплять файлы к сообщениям
Вы не можете скачивать файлы