Обида (Анна Буданова) [2013, Россия, авторская анимация, WEBRip-AVC]


 

[Цитировать]

Обида
Страна: Россия
Жанр: авторская анимация
Год выпуска: 2013
Продолжительность: 00:09:20
Перевод: не требуется
Cубтитры: нет
Режиссёр: Анна Буданова
Описание: История девочки, затаившей обиду. Эта обида материализовалась в лохматое вредное существо, которое с годами разрастаясь, становится её единственным другом, а позже - хозяином.
Доп. информация: Специальный приз жюри фестиваля "Annecy" (Франция)
Приз "Новый талант" фестиваля "Fantoche" (Швейцария)
Приз фестиваля "Animator" (Польша)
Специальный приз фестиваля в Хиросиме
Приз за лучший мультипликат фестиваля в Суздале
Приз за лучший мультфильм фестиваля "Open Cinema" (Санкт-Петербург)
Приз за лучший дебют фестиваля "Послание к человеку" (Санкт-Петербург)
Приз кинофестиваля в Выборге
Качество видео: WEBRip-AVC
Формат видео: MP4
Видео: 2243 kbps, 1280х720 (16:9), 25.000 fps, AVC (High@L3.1)
Аудио: 192 kbps, 44.1 kHz, 2 channels, AAC (LC)

MediaInfo

General
Complete name : Обида (2013).mp4
Format : MPEG-4
Format profile : Base Media / Version 2
Codec ID : mp42
File size : 163 MiB
Duration : 9mn 20s
Overall bit rate mode : Variable
Overall bit rate : 2 437 Kbps
Encoded date : UTC 2014-05-07 14:31:17
Tagged date : UTC 2014-05-07 14:31:17
gsst : 0
gstd : 560575
gssd : BADC23AC7MH1409578358065348
gshh : r7---sn-n8v7lnel.googlevideo.com
Video
ID : 1
Format : AVC
Format/Info : Advanced Video Codec
Format profile : High@L3.1
Format settings, CABAC : Yes
Format settings, ReFrames : 1 frame
Codec ID : avc1
Codec ID/Info : Advanced Video Coding
Duration : 9mn 20s
Bit rate : 2 243 Kbps
Maximum bit rate : 7 990 Kbps
Width : 1 280 pixels
Height : 720 pixels
Display aspect ratio : 16:9
Frame rate mode : Constant
Frame rate : 25.000 fps
Color space : YUV
Chroma subsampling : 4:2:0
Bit depth : 8 bits
Scan type : Progressive
Bits/(Pixel*Frame) : 0.097
Stream size : 150 MiB (92%)
Tagged date : UTC 2014-05-07 14:31:35
Audio
ID : 2
Format : AAC
Format/Info : Advanced Audio Codec
Format profile : LC
Codec ID : 40
Duration : 9mn 20s
Bit rate mode : Variable
Bit rate : 192 Kbps
Maximum bit rate : 201 Kbps
Channel(s) : 2 channels
Channel positions : Front: L R
Sampling rate : 44.1 KHz
Compression mode : Lossy
Stream size : 12.8 MiB (8%)
Title : IsoMedia File Produced by Google, 5-11-2011
Encoded date : UTC 2014-05-07 14:31:29
Tagged date : UTC 2014-05-07 14:31:35

Скриншот c названием фильма

Скриншоты




Показать сообщения:    

Текущее время: 07-Дек 19:21

Часовой пояс: UTC + 3


Вы не можете начинать темы
Вы не можете отвечать на сообщения
Вы не можете редактировать свои сообщения
Вы не можете удалять свои сообщения
Вы не можете голосовать в опросах
Вы не можете прикреплять файлы к сообщениям
Вы не можете скачивать файлы