Нильс Хедингер / Nils Hedinger – Два мультфильма [2008-2010, Швейцария, авторская анимация, WEBRip-AVC]


 

[Цитировать]

Нильс Хедингер / Nils Hedinger – Два мультфильма
В волке / Im Wolf
Страна: Швейцария
Жанр: авторская анимация
Год выпуска: 2008
Продолжительность: 00:00:49
Перевод: не требуется
Cубтитры: нет
Описание: Нестандартный вариант окончания сказки про Красную Шапочку.
Качество видео: WEBRip-AVC
Формат видео: MP4
Видео: 597 kbps, 640х360 (16:9), 25.000 fps, AVC (High@L3.1)
Аудио: 110 kbps, 44.1 kHz, 2 channels, AAC (LC)

MediaInfo

General
Complete name : Im Wolf (2008).mp4
Format : MPEG-4
Format profile : Base Media
Codec ID : isom
File size : 4.15 MiB
Duration : 49s 40ms
Overall bit rate mode : Variable
Overall bit rate : 709 Kbps
Encoded date : UTC 2011-06-13 09:24:45
Tagged date : UTC 2011-06-14 09:24:45
Video
ID : 1
Format : AVC
Format/Info : Advanced Video Codec
Format profile : High@L3.1
Format settings, CABAC : Yes
Format settings, ReFrames : 4 frames
Codec ID : avc1
Codec ID/Info : Advanced Video Coding
Duration : 49s 0ms
Bit rate : 597 Kbps
Maximum bit rate : 1 162 Kbps
Width : 640 pixels
Height : 360 pixels
Display aspect ratio : 16:9
Frame rate mode : Constant
Frame rate : 25.000 fps
Color space : YUV
Chroma subsampling : 4:2:0
Bit depth : 8 bits
Scan type : Progressive
Bits/(Pixel*Frame) : 0.104
Stream size : 3.48 MiB (84%)
Writing library : Vimeo Encoder
Encoded date : UTC 2011-06-13 09:24:45
Tagged date : UTC 2011-06-13 09:24:45
Audio
ID : 2
Format : AAC
Format/Info : Advanced Audio Codec
Format profile : LC
Codec ID : 40
Duration : 49s 40ms
Bit rate mode : Variable
Bit rate : 110 Kbps
Maximum bit rate : 146 Kbps
Channel(s) : 2 channels
Channel positions : Front: L R
Sampling rate : 44.1 KHz
Compression mode : Lossy
Stream size : 658 KiB (16%)
Encoded date : UTC 2011-06-13 09:24:45
Tagged date : UTC 2011-06-13 09:24:45

Скриншот c названием фильма

Скриншоты

В мире животных / Animal Kingdom
Страна: Швейцария
Жанр: авторская анимация
Год выпуска: 2010
Продолжительность: 00:03:42
Перевод: не требуется
Cубтитры: нет
Описание: Три друга - енот, медведь и лис - собрались перед телевизором для просмотра передачи о животном мире. Внезапно лис начинает вести себя странно...
Качество видео: WEBRip-AVC
Формат видео: MP4
Видео: 2486 kbps, 1280х720 (16:9), 25.000 fps, AVC (High@L3.1)
Аудио: 157 kbps, 44.1 kHz, 2 channels, AAC (LC)

MediaInfo

General
Complete name : Animal Kingdom (2010).mp4
Format : MPEG-4
Format profile : Base Media
Codec ID : isom
File size : 70.4 MiB
Duration : 3mn 42s
Overall bit rate mode : Variable
Overall bit rate : 2 647 Kbps
Encoded date : UTC 2011-06-22 15:37:57
Tagged date : UTC 2011-06-23 15:37:59
Video
ID : 1
Format : AVC
Format/Info : Advanced Video Codec
Format profile : High@L3.1
Format settings, CABAC : Yes
Format settings, ReFrames : 4 frames
Codec ID : avc1
Codec ID/Info : Advanced Video Coding
Duration : 3mn 42s
Bit rate : 2 486 Kbps
Maximum bit rate : 6 481 Kbps
Width : 1 280 pixels
Height : 720 pixels
Display aspect ratio : 16:9
Frame rate mode : Constant
Frame rate : 25.000 fps
Color space : YUV
Chroma subsampling : 4:2:0
Bit depth : 8 bits
Scan type : Progressive
Bits/(Pixel*Frame) : 0.108
Stream size : 66.1 MiB (94%)
Writing library : Vimeo Encoder
Encoded date : UTC 2011-06-22 15:37:57
Tagged date : UTC 2011-06-22 15:37:57
Audio
ID : 2
Format : AAC
Format/Info : Advanced Audio Codec
Format profile : LC
Codec ID : 40
Duration : 3mn 42s
Bit rate mode : Variable
Bit rate : 157 Kbps
Maximum bit rate : 186 Kbps
Channel(s) : 2 channels
Channel positions : Front: L R
Sampling rate : 44.1 KHz
Compression mode : Lossy
Stream size : 4.18 MiB (6%)
Encoded date : UTC 2011-06-22 15:37:57
Tagged date : UTC 2011-06-22 15:37:57

Скриншот c названием фильма

Скриншоты




Показать сообщения:    

Текущее время: 10-Дек 19:42

Часовой пояс: UTC + 3


Вы не можете начинать темы
Вы не можете отвечать на сообщения
Вы не можете редактировать свои сообщения
Вы не можете удалять свои сообщения
Вы не можете голосовать в опросах
Вы не можете прикреплять файлы к сообщениям
Вы не можете скачивать файлы