Лили и волк / Lili et le loup (Флоренс Хенрар / Florence Henrard) [1996, Бельгия, авторская анимация, WEBRip] original + rus sub


 

[Цитировать]

Лили и волк / Lili et le loup
Страна: Бельгия
Жанр: авторская анимация
Год выпуска: 1996
Продолжительность: 00:04:31
Перевод: субтитры (переводчик - С.Борискина)
Cубтитры: русские
Режиссер: Флоренс Хенрар / Florence Henrard
Описание: Лили – добрая, но непоседливая девочка. Строгий отец пригрозил ей, что за плохое поведение её съест волк. Обидевшись, Лили сама отправилась в лес на встречу с волком…
Доп. информация: Приз фестиваля "Annecy" за лучшую дипломную работу (1997)
Качество видео: WEBRip
Формат видео: AVI
Видео: 1003 kbps, 640х480 (4:3), 25.000 fps, MPEG-4 Visual (XviD)
Аудио: 112 kbps, 44.1 kHz, 2 channels, MPEG Audio (MP3)
Формат субтитров: softsub (SRT)

MediaInfo

General
Complete name : Lili et le loup (1996).avi
Format : AVI
Format/Info : Audio Video Interleave
File size : 36.3 MiB
Duration : 4mn 31s
Overall bit rate : 1 125 Kbps
Writing library : Boilsoft Joiner build 2411/release
Video
ID : 0
Format : MPEG-4 Visual
Format profile : Simple@L1
Format settings, BVOP : No
Format settings, QPel : No
Format settings, GMC : No warppoints
Format settings, Matrix : Default (H.263)
Codec ID : XVID
Codec ID/Hint : XviD
Duration : 4mn 31s
Bit rate : 1 003 Kbps
Width : 640 pixels
Height : 480 pixels
Display aspect ratio : 4:3
Frame rate : 25.000 fps
Color space : YUV
Chroma subsampling : 4:2:0
Bit depth : 8 bits
Scan type : Progressive
Compression mode : Lossy
Bits/(Pixel*Frame) : 0.131
Stream size : 32.4 MiB (89%)
Writing library : Lavc54.86.100
Audio
ID : 1
Format : MPEG Audio
Format version : Version 1
Format profile : Layer 3
Mode : Joint stereo
Mode extension : MS Stereo
Codec ID : 55
Codec ID/Hint : MP3
Duration : 4mn 31s
Bit rate mode : Constant
Bit rate : 112 Kbps
Channel(s) : 2 channels
Sampling rate : 44.1 KHz
Compression mode : Lossy
Stream size : 3.62 MiB (10%)
Alignment : Split accross interleaves
Interleave, duration : 40 ms (1.00 video frame)
Interleave, preload duration : 500 ms
Writing library : LAME3.99.5

Скриншот c названием фильма

Скриншоты




Показать сообщения:    

Текущее время: 08-Дек 03:15

Часовой пояс: UTC + 3


Вы не можете начинать темы
Вы не можете отвечать на сообщения
Вы не можете редактировать свои сообщения
Вы не можете удалять свои сообщения
Вы не можете голосовать в опросах
Вы не можете прикреплять файлы к сообщениям
Вы не можете скачивать файлы