Создатель / Il Creatore (Николя Бенуа / Nicolas Benoit, Ришар Вийарель / Richard Villareal, Эдди Фрешу / Eddy Frechou, Рафаэль Канселье / Raphael Cancellier, Виолен Шаплен / Violaine Chapelain) [2012, Франция, сатира, анимация, короткий метр, DVB]


 

[Цитировать]

Создатель
Il Creatore- Страна: Франция
Жанр: сатира, анимация, короткий метр
Год выпуска: 2012
Продолжительность: 00:05:01
Перевод: Субтитры (перевод И. Рыбкиной, Éclair Group)
Cубтитры: русские
Оригинальная аудиодорожка: французскийРежиссер: Николя Бенуа / Nicolas Benoit, Ришар Вийарель / Richard Villareal, Эдди Фрешу / Eddy Frechou, Рафаэль Канселье / Raphaël Cancellier, Виолен Шаплен / Violaine Chapelain
В ролях: Бенжамен Гомес / Benjamin Gomez (Dieu), Джо Юм / Joe Hume (Le Boss)
Описание: Забавная интерпретация Сотворения мира, где Бог представлен в виде талантливого, но страдающего манией величия дизайнера-фрилансера, получившего заказ от корпорации "Вселенная". Через неделю он представляет свое амбициозное творение. Но утвердить проект окажется непросто из-за придирчивости заказчика и ограниченности бюджета…
Доп. информация: TV5MONDE DVB-S. На территории РФ возрастное ограничение 18+.
Награды: приз жюри Isart Digital 2012; Гран-при WebProgram-Festival International 2013; приз зрительских симпатий Festival National du Court Métrage Etudiant 2013.

Качество видео: DVB
Формат видео: MKV
Видео: MPEG Video 2, 704x576@1024x576 (16:9), 25 fps, ~2789 kbps avg, 0.275 bit/pixel
Аудио: Французский (MPEG Audio 2, 2 ch, 48 kHz, ~192.00 kbps avg)
Формат субтитров: hardsub (неотключаемые)

MediaInfo

ОбщееУникальный идентификатор : 218734635267896945110667779397546122256 (0xA48EC226170615F4BC630401E4A79C10)Полное имя : E:\My Torrents 2\[apreder]MINI_MOVIES_09\[apreder]MM_Il_Creatore(2012)DVB.mkvФормат : MatroskaВерсия формата : Version 2Размер файла : 109 МбайтПродолжительность : 5 м. 1 с.Режим общего битрейта : ПеременныйОбщий поток : 3042 Кбит/секДата кодирования : UTC 2014-09-03 15:04:59Программа кодирования : mkvmerge v7.1.0 ('Good Love') 64bit built on Jul 27 2014 13:06:55Библиотека кодирования : libebml v1.3.0 + libmatroska v1.4.1
ВидеоИдентификатор : 1Формат : MPEG VideoВерсия формата : Version 2Профиль формата : Main@MainПараметр BVOP формата : НетПараметр матрицы формата : ВыборочнаяИдентификатор кодека : V_MPEG2Идентификатор кодека/Информация : MPEG 1 or 2 VideoПродолжительность : 5 м. 1 с.Вид битрейта : ПеременныйБитрейт : 2789 Кбит/секМаксимальный битрейт : 7283 Кбит/секШирина : 704 пикселяВысота : 576 пикселейСоотношение сторон : 16:9Режим частоты кадров : ПостоянныйЧастота кадров : 25,000 кадров/секСтандарт вещания : PALЦветовое пространство : YUVСубдискретизация насыщенности : 4:2:0Битовая глубина : 8 битТип развёртки : ЧересстрочнаяПорядок развёртки : Верхнее поле первоеМетод сжатия : С потерямиБит/(Пиксели*Кадры) : 0.275Временной код первого кадра : 00:00:00:00Оригинал временного кода : Group of pictures headerРазмер потока : 100 Мбайт (92%)Default : ДаForced : Нет
АудиоИдентификатор : 2Формат : MPEG AudioВерсия формата : Version 1Профиль формата : Layer 2Идентификатор кодека : A_MPEG/L2Идентификатор кодека/Подсказка : MP2Продолжительность : 5 м. 1 с.Вид битрейта : ПостоянныйБитрейт : 192 Кбит/секКаналы : 2 каналаЧастота : 48,0 КГцМетод сжатия : С потерямиРазмер потока : 6,90 Мбайт (6%)Язык : FrenchDefault : ДаForced : Нет

Скриншот c названием фильма

Скриншоты

Резервные скриншоты

-[1'650]



Показать сообщения:    

Текущее время: 06-Дек 13:10

Часовой пояс: UTC + 3


Вы не можете начинать темы
Вы не можете отвечать на сообщения
Вы не можете редактировать свои сообщения
Вы не можете удалять свои сообщения
Вы не можете голосовать в опросах
Вы не можете прикреплять файлы к сообщениям
Вы не можете скачивать файлы