Идиоты и ангелы / Idiots and Angels (Билл Плимптон / Bill Plympton) [2008, США, мультфильм, DVDRip-AVC] + Sub Rus


 

[Цитировать]

Идиоты и ангелы / Idiots and Angels
Страна: США
Жанр: мультфильм
Год выпуска: 2008
Продолжительность: 01:18:35
Перевод: Не требуется
Cубтитры: русские (на надписи)
Навигация по главам: есть
Режиссер: Билл Плимптон / Bill Plympton
В ролях: -
О фильме: Мрачная комедия о борьбе человека за свою душу. Ангел, эгоистичный и нравственно опустошенный человек, просыпается однажды утром и обнаруживает за спиной крылья. Он пытается спрятать их, но в конце концов все в баре Барта, где герой коротает время, узнают об их существовании и начинают потешаться над смешными отростками...
Доп. информация: http://www.imdb.com/title/tt1013607/
Исходник: http://teatrix.ru/viewtopic.php?t=5186
Сэмпл: http://rusfolder.com/41598702
Качество видео: DVDRip-AVC
Формат видео: MKV
Видео: x264, 720x480@853x480 (16:9), 23.976 fps, ~1744 kbps avg, 0.21 bit/pixel
Аудио: 48 kHz, AC3 Dolby Digital, 2/0 (L,R) ch, ~224.00 kbps avg

MediaInfo

Общее
Уникальный идентификатор : 178180185097002739278935966132601678789 (0x860C4161BAA69426A6DAFCE5EFFCEBC5)
Полное имя : D:\Фильмы\Идиоты и ангелы\Idioty.i.angely.2008.P.DVDRip-AVC.mkv
Формат : Matroska
Версия формата : Version 4 / Version 2
Размер файла : 1,08 Гбайт
Продолжительность : 1 ч. 18 м.
Общий поток : 1969 Кбит/сек
Название фильма : Idiots and Angels (Bill Plympton, 2008) DVDRip-AVC
Дата кодирования : UTC 2014-08-31 06:17:18
Программа кодирования : mkvmerge v6.1.0 ('Old Devil') built on Mar 4 2013 09:10:42
Библиотека кодирования : libebml v1.3.0 + libmatroska v1.4.0
Видео
Идентификатор : 1
Формат : AVC
Формат/Информация : Advanced Video Codec
Профиль формата : High@L4.1
Параметр CABAC формата : Да
Параметр ReFrames формата : 11 кадров
Идентификатор кодека : V_MPEG4/ISO/AVC
Продолжительность : 1 ч. 18 м.
Битрейт : 1744 Кбит/сек
Ширина : 720 пикселей
Высота : 480 пикселей
Соотношение сторон : 16:9
Режим частоты кадров : Постоянный
Частота кадров : 23,976 кадра/сек
Стандарт вещания : NTSC
Цветовое пространство : YUV
Субдискретизация насыщенности : 4:2:0
Битовая глубина : 8 бит
Тип развёртки : Прогрессивная
Бит/(Пиксели*Кадры) : 0.210
Размер потока : 959 Мбайт (87%)
Библиотека кодирования : x264 core 142 r2453 ea0ca51
Настройки программы : cabac=1 / ref=11 / deblock=1:0:0 / analyse=0x3:0x133 / me=umh / subme=10 / psy=1 / psy_rd=0.40:0.00 / mixed_ref=1 / me_range=32 / chroma_me=1 / trellis=2 / 8x8dct=1 / cqm=0 / deadzone=21,11 / fast_pskip=0 / chroma_qp_offset=-2 / threads=6 / lookahead_threads=1 / sliced_threads=0 / nr=0 / decimate=1 / interlaced=0 / bluray_compat=0 / constrained_intra=0 / bframes=11 / b_pyramid=2 / b_adapt=2 / b_bias=0 / direct=3 / weightb=1 / open_gop=0 / weightp=2 / keyint=240 / keyint_min=23 / scenecut=40 / intra_refresh=0 / rc=2pass / mbtree=0 / bitrate=1744 / ratetol=1.0 / qcomp=0.60 / qpmin=10 / qpmax=51 / qpstep=4 / cplxblur=20.0 / qblur=0.5 / ip_ratio=1.40 / pb_ratio=1.30 / aq=1:0.60
Default : Да
Forced : Нет
Коэффициенты матрицы : BT.601
Аудио
Идентификатор : 2
Формат : AC-3
Формат/Информация : Audio Coding 3
Расширение режима : CM (complete main)
Параметр Endianness формата : Big
Идентификатор кодека : A_AC3
Продолжительность : 1 ч. 18 м.
Вид битрейта : Постоянный
Битрейт : 224 Кбит/сек
Каналы : 2 канала
Расположение каналов : Front: L R
Частота : 48,0 КГц
Битовая глубина : 16 бит
Метод сжатия : С потерями
Размер потока : 126 Мбайт (11%)
Default : Да
Forced : Нет
Текст
Идентификатор : 3
Формат : UTF-8
Идентификатор кодека : S_TEXT/UTF8
Идентификатор кодека/Информация : UTF-8 Plain Text
Язык : Russian
Default : Да
Forced : Нет
Меню
00:00:00.000 : en:Chapter 01
00:00:54.000 : en:Chapter 02
00:13:07.500 : en:Chapter 03
00:28:51.000 : en:Chapter 04
00:45:26.500 : en:Chapter 05
01:01:32.500 : en:Chapter 06
01:16:43.000 : en:Chapter 07

x264

x264 [info]: frame I:1087 Avg QP:11.83 size: 64843
x264 [info]: frame P:22709 Avg QP:12.17 size: 22136
x264 [info]: frame B:89257 Avg QP:13.79 size: 5090
x264 [info]: consecutive B-frames: 2.6% 3.4% 7.9% 14.1% 10.0% 29.0% 8.4% 9.6% 3.5% 1.8% 3.3% 6.4%
x264 [info]: mb I I16..4: 1.1% 90.5% 8.4%
x264 [info]: mb P I16..4: 0.1% 12.4% 2.5% P16..4: 30.5% 8.0% 13.3% 1.1% 0.4% skip:31.8%
x264 [info]: mb B I16..4: 0.0% 1.1% 0.6% B16..8: 26.0% 5.7% 2.2% direct: 5.6% skip:58.8% L0:47.3% L1:37.2% BI:15.4%
x264 [info]: 8x8 transform intra:80.3% inter:55.5%
x264 [info]: direct mvs spatial:93.8% temporal:6.2%
x264 [info]: coded y,uvDC,uvAC intra: 98.4% 63.1% 40.2% inter: 19.0% 9.6% 1.6%
x264 [info]: i16 v,h,dc,p: 57% 15% 13% 16%
x264 [info]: i8 v,h,dc,ddl,ddr,vr,hd,vl,hu: 17% 16% 29% 6% 4% 4% 4% 9% 10%
x264 [info]: i4 v,h,dc,ddl,ddr,vr,hd,vl,hu: 13% 10% 8% 11% 10% 10% 9% 14% 14%
x264 [info]: i8c dc,h,v,p: 52% 24% 18% 6%
x264 [info]: Weighted P-Frames: Y:5.8% UV:2.8%
x264 [info]: ref P L0: 53.7% 16.9% 14.5% 5.9% 3.5% 2.1% 1.4% 0.8% 0.5% 0.4% 0.3% 0.1% 0.0%
x264 [info]: ref B L0: 66.6% 22.6% 6.2% 2.2% 1.1% 0.6% 0.4% 0.2% 0.1% 0.0%
x264 [info]: ref B L1: 92.7% 7.3%

Скриншот c названием фильма




Показать сообщения:    

Текущее время: 04-Дек 21:25

Часовой пояс: UTC + 3


Вы не можете начинать темы
Вы не можете отвечать на сообщения
Вы не можете редактировать свои сообщения
Вы не можете удалять свои сообщения
Вы не можете голосовать в опросах
Вы не можете прикреплять файлы к сообщениям
Вы не можете скачивать файлы