Посмотреть на лошадей / Looking for horses (Энтони Лоуренс / Anthony Lawrence) [2001, Австралия, авторская анимация, DVDRip] original + rus sub


 

[Цитировать]

Посмотреть на лошадей / Looking for horses
Страна: Австралия
Жанр: авторская анимация
Год выпуска: 2001
Продолжительность: 00:06:00
Перевод: субтитры (перевод - В.Борискин)
Cубтитры: русские
Режиссёр: Энтони Лоуренс / Anthony Lawrence
Описание: На лето родители привезли десятилетнюю Крисси и её младшую сестру на Французский Остров. Девочки рассчитывали покупаться в море и посмотреть на лошадей... В реальности их ожидал грязевой пляж, а вдобавок предстояло узнать, что родители на грани развода.
Качество видео: DVDRip
Формат видео: AVI
Видео: 1151 kbps, 720х432 (1.667), 25.000 fps, MPEG-4 Visual (XviD)
Аудио: 192 kbps, 48.0 kHz, 16 bits, 2 channels, AC-3
Формат субтитров: softsub (SRT)

MediaInfo

General
Complete name : Looking for horses (2001).avi
Format : AVI
Format/Info : Audio Video Interleave
File size : 58.1 MiB
Duration : 6mn 0s
Overall bit rate : 1 353 Kbps
Writing application : VirtualDubMod 1.5.10.3 (build 2550/release)
Writing library : VirtualDubMod build 2550/release
Video
ID : 0
Format : MPEG-4 Visual
Format profile : Advanced Simple@L4
Format settings, BVOP : 2
Format settings, QPel : No
Format settings, GMC : No warppoints
Format settings, Matrix : Default (H.263)
Muxing mode : Packed bitstream
Codec ID : XVID
Codec ID/Hint : XviD
Duration : 6mn 0s
Bit rate : 1 151 Kbps
Width : 720 pixels
Height : 432 pixels
Display aspect ratio : 1.667
Frame rate : 25.000 fps
Color space : YUV
Chroma subsampling : 4:2:0
Bit depth : 8 bits
Scan type : Progressive
Compression mode : Lossy
Bits/(Pixel*Frame) : 0.148
Stream size : 49.5 MiB (85%)
Writing library : XviD 1.2.1 (UTC 2008-12-04)
Audio
ID : 1
Format : AC-3
Format/Info : Audio Coding 3
Mode extension : CM (complete main)
Format settings, Endianness : Big
Codec ID : 2000
Duration : 6mn 0s
Bit rate mode : Constant
Bit rate : 192 Kbps
Channel(s) : 2 channels
Channel positions : Front: L R
Sampling rate : 48.0 KHz
Bit depth : 16 bits
Compression mode : Lossy
Stream size : 8.25 MiB (14%)
Alignment : Split accross interleaves
Interleave, duration : 40 ms (1.00 video frame)
Interleave, preload duration : 500 ms

Скриншот c названием фильма

Скриншоты

Пример субтитров

6
00:00:24,110 --> 00:00:26,710
ПОСМОТРЕТЬ НА ЛОШАДЕЙ
по рассказу Крисси МакМахон
7
00:00:27,720 --> 00:00:29,270
Этот пляж такой смешной.
8
00:00:30,000 --> 00:00:31,000
Что это воклуг?
9
00:00:31,650 --> 00:00:32,300
Грязь.
10
00:00:32,390 --> 00:00:33,420
Глясь. - Грязь.
11
00:00:33,790 --> 00:00:34,610
Глясь! - Грязь.
12
00:00:35,730 --> 00:00:36,570
Грязь, грязь, грязь, грязь.
13
00:00:36,610 --> 00:00:38,000
Глясь, глясь, глясь, глясь!
14
00:00:38,030 --> 00:00:39,350
Ладно, девочки! Хватит!
15
00:00:39,990 --> 00:00:42,520
Грязь - это очень хорошо для кожи.
16
00:00:52,700 --> 00:00:53,770
Смотрите, девчонки! Зайцы!
17
00:00:54,310 --> 00:00:55,010
Это кролики.
18
00:00:57,400 --> 00:00:59,530
Пап, останови машину!
19
00:01:00,010 --> 00:01:00,800
Это кролики!



Показать сообщения:    

Текущее время: 06-Дек 17:03

Часовой пояс: UTC + 3


Вы не можете начинать темы
Вы не можете отвечать на сообщения
Вы не можете редактировать свои сообщения
Вы не можете удалять свои сообщения
Вы не можете голосовать в опросах
Вы не можете прикреплять файлы к сообщениям
Вы не можете скачивать файлы