Ильфипетров (Роман Либеров) [2013, Россия, документально-анимационный, биографический, DVB]


 

[Цитировать]

Ильфипетров- Страна: Россия
Жанр: документально-анимационный, биографический
Год выпуска: 2013
Продолжительность: 01:35:55 (00:45:05 + 00:50:50)
Перевод: Не требуется
Cубтитры: нет
Режиссер: Роман ЛиберовВ ролях: Озвучивают: Леонид Каневский (рассказчик), Сергей Маковецкий (Илья Ильф), Игорь Золотовицкий (Евгений Петров), Полина Агуреева (Маруся Ильф), Екатерина Федулова (Валя Катаева), Михаил Ефремов (Валентин Катаев), Дмитрий Хоронько (Остап Бендер), Дэвид Гамбург (мистер Адамс), Светлана Камынина (миссис Адамс)
Описание: С тем, чтобы зритель угадал в фамилии ИЛЬФИПЕТРОВ отдельных Илью Ильфа и Евгения Петрова, авторами собрана впечатляющая доказательная база: живые свидетельства добыты в Москве, Одессе, Ярославле, Париже, Нью-Йорке; в точном повторении маршрута "Одноэтажной Америки", в чудом сохранившихся семейных архивах.
Мультипликация в фильме "Ильфипетров" основана на живописи художника Александра Лабаса.
Доп. информация: "Время: далекое и близкое" DVB-S. 2-х-серийный фильм.
Участник внеконкурсной программы XXIV Международного кинофестиваля "Послание к человеку" (Санкт-Петербург) 2013; Фестиваля русской литературы и культуры "Slovo" (May Fair Hotel Theatre, London) 2014.

Качество видео: DVB
Формат видео: MKV
Видео: MPEG Video 2, 720x576@768x576 (4:3), 25 fps, ~3392 kbps avg, 0.327 bit/pixel
Аудио: MPEG Audio 2, 2 ch, 48 kHz, ~192.00 kbps avg

MediaInfo

ОбщееУникальный идентификатор : 184618467053402894159916131944453034715 (0x8AE43930A4EAC3A5AAEB8974505ED2DB)Полное имя : E:\My Torrents 2\[apreder]Ilfipetrov(2013)DVB\[apreder]Ilfipetrov_Pt.1(2013)DVB.mkvФормат : MatroskaВерсия формата : Version 2Размер файла : 1,15 ГбайтПродолжительность : 45 м.Режим общего битрейта : ПеременныйОбщий поток : 3657 Кбит/секДата кодирования : UTC 2014-08-17 05:35:05Программа кодирования : mkvmerge v7.1.0 ('Good Love') 64bit built on Jul 27 2014 13:06:55Библиотека кодирования : libebml v1.3.0 + libmatroska v1.4.1
ВидеоИдентификатор : 1Формат : MPEG VideoВерсия формата : Version 2Профиль формата : Main@MainПараметр BVOP формата : НетПараметр матрицы формата : ВыборочнаяИдентификатор кодека : V_MPEG2Идентификатор кодека/Информация : MPEG 1 or 2 VideoПродолжительность : 45 м.Вид битрейта : ПеременныйБитрейт : 3392 Кбит/секМаксимальный битрейт : 4993 Кбит/секШирина : 720 пикселейВысота : 576 пикселейСоотношение сторон : 4:3Режим частоты кадров : ПостоянныйЧастота кадров : 25,000 кадров/секСтандарт вещания : PALЦветовое пространство : YUVСубдискретизация насыщенности : 4:2:0Битовая глубина : 8 битТип развёртки : ЧересстрочнаяПорядок развёртки : Верхнее поле первоеМетод сжатия : С потерямиБит/(Пиксели*Кадры) : 0.327Временной код первого кадра : 00:00:00:00Оригинал временного кода : Group of pictures headerРазмер потока : 1,07 Гбайт (93%)Default : ДаForced : Нет
АудиоИдентификатор : 2Формат : MPEG AudioВерсия формата : Version 1Профиль формата : Layer 2Идентификатор кодека : A_MPEG/L2Идентификатор кодека/Подсказка : MP2Продолжительность : 45 м.Вид битрейта : ПостоянныйБитрейт : 192 Кбит/секКаналы : 2 каналаЧастота : 48,0 КГцМетод сжатия : С потерямиРазмер потока : 61,9 Мбайт (5%)Язык : RussianDefault : ДаForced : Нет

Скриншот c названием фильма

Скриншоты


Резервные скриншоты


-[1'641]



Показать сообщения:    

Текущее время: 10-Дек 06:07

Часовой пояс: UTC + 3


Вы не можете начинать темы
Вы не можете отвечать на сообщения
Вы не можете редактировать свои сообщения
Вы не можете удалять свои сообщения
Вы не можете голосовать в опросах
Вы не можете прикреплять файлы к сообщениям
Вы не можете скачивать файлы