Огниво / Křesadlo (Дагмар Доубкова / Dagmar Doubková) [1985, Чехословакия, Кукольный мультфильм, TVRip]


 

[Цитировать]

Огниво / Křesadlo
Страна: Чехословакия
Жанр: Кукольный мультфильм
Год выпуска: 1985
Продолжительность: 00:16:12
Перевод: Не требуется
Режиссер: Дагмар Доубкова / Dagmar Doubková
Сценарий: Эдгар Дутка/ Edgar Dutka
Композитор: Иржи Стивин / Jiří Stivín
В ролях: куклы
Описание: Сказка по мотивам датского писателя Ганса Кристиана Андерсена "Огниво". Сказка рассказывает о везучем солдате, который встретил в лесу ведьму, принесшую ему богатство. Взамен она только огниво со старого дупла попросила у него, но солдат и его сумел забрать. Огниво оказалось волшебным и с его помощью солдат не только избежал виселицы, но и женился на принцессе.
-
Сэмпл: http://sendfile.su/1011431
Качество видео: TVRip
Формат видео: AVI
Видео: 640x480 (1.33:1), 25 fps, XviD build 64 ~1945 kbps avg, 0.25 bit/pixel
Аудио: 48 kHz, AC3 Dolby Digital, 2/0 (L,R) ch, ~128 kbps
-

MediaInfo

General
Complete name : C:\Kresadlo (1985, TVRip).avi
Format : AVI
Format/Info : Audio Video Interleave
File size : 242 MiB
Duration : 16mn 12s
Overall bit rate : 2 083 Kbps
Writing application : VirtualDubMod 1.5.4.1 (build 2066/release)
Writing library : VirtualDubMod build 2066/release
Video
ID : 0
Format : MPEG-4 Visual
Format profile : Advanced Simple@L5
Format settings, BVOP : 2
Format settings, QPel : No
Format settings, GMC : No warppoints
Format settings, Matrix : Default (MPEG)
Codec ID : XVID
Codec ID/Hint : XviD
Duration : 16mn 12s
Bit rate : 1 946 Kbps
Width : 640 pixels
Height : 480 pixels
Display aspect ratio : 4:3
Frame rate : 25.000 fps
Color space : YUV
Chroma subsampling : 4:2:0
Bit depth : 8 bits
Scan type : Progressive
Compression mode : Lossy
Bits/(Pixel*Frame) : 0.253
Stream size : 226 MiB (93%)
Writing library : XviD 64
Audio
ID : 1
Format : AC-3
Format/Info : Audio Coding 3
Mode extension : CM (complete main)
Format settings, Endianness : Big
Codec ID : 2000
Duration : 16mn 12s
Bit rate mode : Constant
Bit rate : 128 Kbps
Channel(s) : 2 channels
Channel positions : Front: L R
Sampling rate : 48.0 KHz
Bit depth : 16 bits
Compression mode : Lossy
Stream size : 14.8 MiB (6%)
Alignment : Split accross interleaves
Interleave, duration : 40 ms (1.00 video frame)
Interleave, preload duration : 500 ms

Скриншот c названием фильма

Скриншоты

-



Показать сообщения:    

Текущее время: 04-Дек 11:15

Часовой пояс: UTC + 3


Вы не можете начинать темы
Вы не можете отвечать на сообщения
Вы не можете редактировать свои сообщения
Вы не можете удалять свои сообщения
Вы не можете голосовать в опросах
Вы не можете прикреплять файлы к сообщениям
Вы не можете скачивать файлы