Пляж / Wad (Йорис Опринс / Joris Oprins) [2003, Нидерланды, авторская анимация, DVDRip]


 

[Цитировать]

Пляж / Wad
Страна: Нидерланды
Жанр: авторская анимация
Год выпуска: 2003
Продолжительность: 00:04:45
Перевод: Не требуется
Cубтитры: нет
Режиссёр: Йорис Опринс / Joris Oprins
Описание: Парочка со своей собачкой пытается отдыхать на пляже, но приливы и сильный ветер этому не способствуют.
Доп. информация: Йорис Опринс говорит, что мультфильм рассказывает реальную историю о том, как они с подругой Марике посетили илистый пляж. Только собаки у них не было, и ветер был не столь сильным.
Качество видео: DVDRip
Формат видео: AVI
Видео: 892 kbps, 640х360 (16x9), 25.000 fps, MPEG-4 Visual (XviD)
Аудио: 128 kbps, 44.1 kHz, 2 channels, MPEG Audio (MP3)

MediaInfo

General
Complete name : Wad (2003).avi
Format : AVI
Format/Info : Audio Video Interleave
File size : 35.0 MiB
Duration : 4mn 45s
Overall bit rate : 1 027 Kbps
Writing application : Lavf54.63.104
Writing library : VirtualDub build 32842/release
Video
ID : 0
Format : MPEG-4 Visual
Format profile : Advanced Simple@L4
Format settings, BVOP : 2
Format settings, QPel : No
Format settings, GMC : No warppoints
Format settings, Matrix : Default (H.263)
Muxing mode : Packed bitstream
Codec ID : XVID
Codec ID/Hint : XviD
Duration : 4mn 45s
Bit rate : 892 Kbps
Width : 640 pixels
Height : 360 pixels
Display aspect ratio : 16:9
Frame rate : 25.000 fps
Color space : YUV
Chroma subsampling : 4:2:0
Bit depth : 8 bits
Scan type : Progressive
Compression mode : Lossy
Bits/(Pixel*Frame) : 0.155
Stream size : 30.4 MiB (87%)
Writing library : XviD 1.2.1 (UTC 2008-12-04)
Audio
ID : 1
Format : MPEG Audio
Format version : Version 1
Format profile : Layer 3
Mode : Joint stereo
Mode extension : MS Stereo
Codec ID : 55
Codec ID/Hint : MP3
Duration : 4mn 33s
Bit rate mode : Constant
Bit rate : 128 Kbps
Channel(s) : 2 channels
Sampling rate : 44.1 KHz
Compression mode : Lossy
Stream size : 4.17 MiB (12%)
Alignment : Aligned on interleaves
Interleave, duration : 27 ms (0.68 video frame)
Interleave, preload duration : 522 ms
Writing library : LAME3.99.

Скриншот c названием фильма

Скриншоты




Показать сообщения:    

Текущее время: 06-Дек 15:15

Часовой пояс: UTC + 3


Вы не можете начинать темы
Вы не можете отвечать на сообщения
Вы не можете редактировать свои сообщения
Вы не можете удалять свои сообщения
Вы не можете голосовать в опросах
Вы не можете прикреплять файлы к сообщениям
Вы не можете скачивать файлы