Вперед в Сантьяго / Hasta Santiago (Мауро Карраро / Mauro Carraro) [2013, Швейцария, Франция, комедия, драма, анимация, короткий метр, DVB] Original (Fre) + Sub (rus)


 

[Цитировать]

Вперед в Сантьяго
Hasta Santiago- Страна: Швейцария, Франция
Жанр: комедия, драма, анимация, короткий метр
Год выпуска: 2013
Продолжительность: 00:12:09
Перевод: Субтитры (перевод И. Рыбкиной, Éclair Group)
Cубтитры: русские
Оригинальная аудиодорожка: французский
Режиссер: Мауро Карраро / Mauro CarraroВ ролях: Халед Хури / Khaled Khouri (voix-off narrateur), Валантен Санчес / Valentin Sanchez (voix Leandro)
Описание: На пути к могиле апостола Иакова в испанском городе Сантьяго-де-Компостела, Леандро посетит знаменитые города и познакомится с другими путниками, которым вовсе не обязательно нести свою ношу по легендарной дороге.
Доп. информация: TV5MONDE DVB-S
Награды: номинация на приз "Golden Pardino" в секции "Леопарды завтрашнего дня" Locarno International Film Festival 2013; 2 награды Annecy International Animated Film Festival 2014 (приз Jean-Luc Xiberras за лучший режиссерский дебют; приз Sacem за лучшую оригинальную музыку); др. награды.

Качество видео: DVB
Формат видео: MKV
Видео: MPEG Video 2, 704x576@1024x576 (16:9), 25 fps, ~3045 kbps avg, 0.300 bit/pixel
Аудио: Французский (MPEG Audio 2, 2 ch, 48 kHz, ~192.00 kbps avg)
Формат субтитров: hardsub (неотключаемые)

MediaInfo

ОбщееУникальный идентификатор : 190111557232853773953054737210997793642 (0x8F0627721B61F6B58BA9895662E8E36A)Полное имя : E:\My Torrents 2\[apreder]MINI_MOVIES_09\[apreder]MM_Hasta_Santiago(2013)DVB.mkvФормат : MatroskaВерсия формата : Version 2Размер файла : 287 МбайтПродолжительность : 12 м.Режим общего битрейта : ПеременныйОбщий поток : 3302 Кбит/секДата кодирования : UTC 2014-08-08 15:42:07Программа кодирования : mkvmerge v7.1.0 ('Good Love') 64bit built on Jul 27 2014 13:06:55Библиотека кодирования : libebml v1.3.0 + libmatroska v1.4.1
ВидеоИдентификатор : 1Формат : MPEG VideoВерсия формата : Version 2Профиль формата : Main@MainПараметр BVOP формата : НетПараметр матрицы формата : ВыборочнаяИдентификатор кодека : V_MPEG2Идентификатор кодека/Информация : MPEG 1 or 2 VideoПродолжительность : 12 м.Вид битрейта : ПеременныйБитрейт : 3045 Кбит/секМаксимальный битрейт : 5908 Кбит/секШирина : 704 пикселяВысота : 576 пикселейСоотношение сторон : 16:9Режим частоты кадров : ПостоянныйЧастота кадров : 25,000 кадров/секСтандарт вещания : PALЦветовое пространство : YUVСубдискретизация насыщенности : 4:2:0Битовая глубина : 8 битТип развёртки : ЧересстрочнаяПорядок развёртки : Верхнее поле первоеМетод сжатия : С потерямиБит/(Пиксели*Кадры) : 0.300Временной код первого кадра : 00:00:00:00Оригинал временного кода : Group of pictures headerРазмер потока : 265 Мбайт (92%)Default : ДаForced : Нет
АудиоИдентификатор : 2Формат : MPEG AudioВерсия формата : Version 1Профиль формата : Layer 2Идентификатор кодека : A_MPEG/L2Идентификатор кодека/Подсказка : MP2Продолжительность : 12 м.Вид битрейта : ПостоянныйБитрейт : 192 Кбит/секКаналы : 2 каналаЧастота : 48,0 КГцМетод сжатия : С потерямиРазмер потока : 16,7 Мбайт (6%)Язык : FrenchDefault : ДаForced : Нет

Скриншот c названием фильма

Скриншоты

Резервные скриншоты

-[1'606]



Показать сообщения:    

Текущее время: 05-Дек 01:26

Часовой пояс: UTC + 3


Вы не можете начинать темы
Вы не можете отвечать на сообщения
Вы не можете редактировать свои сообщения
Вы не можете удалять свои сообщения
Вы не можете голосовать в опросах
Вы не можете прикреплять файлы к сообщениям
Вы не можете скачивать файлы