Атлант получает выпивку / Atlas gets a drink (Майк Овербек / Mike Overbeck) [1999, США, авторская анимация, чёрный юмор, DVDRip] original + rus sub


 

[Цитировать]

Атлант получает выпивку / Atlas gets a drink
Страна: США
Жанр: авторская анимация, чёрный юмор
Год выпуска: 1999
Продолжительность: 00:03:29
Перевод: субтитры (alex.n42)
Cубтитры: русские
Режиссёр: Майк Овербек / Mike Overbeck
Описание: Рыбы по полю гуляют, люди по небу летают... Путаница почти как у Чуковского, только отвязней и жёстче. Финал бескомпромиссен, но зато Атлант получает выпивку!
Доп. информация: Ещё один сумасшедший мульт Майкла Овербека под названием "Tongues and taxis" / "Языки и такси" находится тут - http://teatrix.ru/viewtopic.php?t=10528
Качество видео: DVDRip
Формат видео: AVI
Видео: 712 kbps, 640х480 (4:3), 24.000 fps, MPEG-4 Visual (XviD)
Аудио: 112 kbps, 44.1 kHz, 2 channels, MPEG Audio (MP3)
Формат субтитров: softsub (SRT)

MediaInfo

General
Complete name : Atlas gets a drink (1999).avi
Format : AVI
Format/Info : Audio Video Interleave
File size : 20.9 MiB
Duration : 3mn 29s
Overall bit rate : 836 Kbps
Writing application : Lavf54.59.107
Video
ID : 0
Format : MPEG-4 Visual
Format profile : Simple@L1
Format settings, BVOP : No
Format settings, QPel : No
Format settings, GMC : No warppoints
Format settings, Matrix : Default (H.263)
Codec ID : XVID
Codec ID/Hint : XviD
Duration : 3mn 29s
Bit rate : 712 Kbps
Width : 640 pixels
Height : 480 pixels
Display aspect ratio : 4:3
Frame rate : 24.000 fps
Color space : YUV
Chroma subsampling : 4:2:0
Bit depth : 8 bits
Scan type : Progressive
Compression mode : Lossy
Bits/(Pixel*Frame) : 0.097
Stream size : 17.8 MiB (85%)
Writing library : Lavc54.86.100
Audio
ID : 1
Format : MPEG Audio
Format version : Version 1
Format profile : Layer 3
Mode : Joint stereo
Mode extension : MS Stereo
Codec ID : 55
Codec ID/Hint : MP3
Duration : 3mn 29s
Bit rate mode : Constant
Bit rate : 112 Kbps
Channel(s) : 2 channels
Sampling rate : 44.1 KHz
Compression mode : Lossy
Stream size : 2.80 MiB (13%)
Alignment : Aligned on interleaves
Interleave, duration : 26 ms (0.63 video frame)
Interleave, preload duration : 26 ms
Writing library : LAME3.99.5

Скриншот c названием фильма

Скриншоты




Показать сообщения:    

Текущее время: 09-Дек 16:37

Часовой пояс: UTC + 3


Вы не можете начинать темы
Вы не можете отвечать на сообщения
Вы не можете редактировать свои сообщения
Вы не можете удалять свои сообщения
Вы не можете голосовать в опросах
Вы не можете прикреплять файлы к сообщениям
Вы не можете скачивать файлы