Галерея / Galeria (Роберт Проч / Robert Proch) [2010, Польша, авторская анимация, DVDRip]


 

[Цитировать]

Галерея / Galeria
Страна: Польша
Жанр: авторская анимация
Год выпуска: 2010
Продолжительность: 00:04:44
Перевод: Не требуется
Cубтитры: нет
Режиссер: Роберт Проч / Robert Proch
Описание: Выполненный в условной графике, но наполненный узнаваемыми образами, и виртуозно хореографически выстроенный этюд о посещении супругами торгового центра. Для мужчины это утомительная обязанность, для женщины - почти священный ритуал.
Качество видео: DVDRip
Формат видео: AVI
Видео: 2188 kbps, 720х400 (16:9), 24.000 fps, MPEG-4 Visual (XviD)
Аудио: 128 kbps, 48.0 kHz, 2 channels, MPEG Audio (MP3)

MediaInfo

General
Complete name : Galeria (2010).avi
Format : AVI
Format/Info : Audio Video Interleave
File size : 78.8 MiB
Duration : 4mn 44s
Overall bit rate : 2 326 Kbps
Writing application : VirtualDubMod 1.5.10.3 (build 2550/release)
Writing library : VirtualDubMod build 2550/release
Video
ID : 0
Format : MPEG-4 Visual
Format profile : Advanced Simple@L5
Format settings, BVOP : 2
Format settings, QPel : No
Format settings, GMC : No warppoints
Format settings, Matrix : Custom
Codec ID : XVID
Codec ID/Hint : XviD
Duration : 4mn 44s
Bit rate : 2 188 Kbps
Width : 720 pixels
Height : 400 pixels
Display aspect ratio : 16:9
Frame rate : 24.000 fps
Color space : YUV
Chroma subsampling : 4:2:0
Bit depth : 8 bits
Scan type : Progressive
Compression mode : Lossy
Bits/(Pixel*Frame) : 0.317
Stream size : 74.1 MiB (94%)
Writing library : XviD 65
Audio
ID : 1
Format : MPEG Audio
Format version : Version 1
Format profile : Layer 3
Mode : Joint stereo
Mode extension : MS Stereo
Codec ID : 55
Codec ID/Hint : MP3
Duration : 4mn 44s
Bit rate mode : Constant
Bit rate : 128 Kbps
Channel(s) : 2 channels
Sampling rate : 48.0 KHz
Compression mode : Lossy
Stream size : 4.34 MiB (6%)
Alignment : Aligned on interleaves
Interleave, duration : 42 ms (1.00 video frame)
Interleave, preload duration : 504 ms
Writing library : LAME3.99r
Encoding settings : -m j -V 4 -q 3 -lowpass 17 -b 128

Скриншот c названием фильма

Скриншоты




Показать сообщения:    

Текущее время: 02-Дек 21:14

Часовой пояс: UTC + 3


Вы не можете начинать темы
Вы не можете отвечать на сообщения
Вы не можете редактировать свои сообщения
Вы не можете удалять свои сообщения
Вы не можете голосовать в опросах
Вы не можете прикреплять файлы к сообщениям
Вы не можете скачивать файлы