Стивен Ирвин / Stephen Irwin – Три анимационных фильма [2008-2012, Великобритания, авторская анимация, WEBRip-AVC]


 

[Цитировать]

Стивен Ирвин / Stephen Irwin – Три анимационных фильма
Мир фильмов Стивена Ирвина - это неприятный мир чёрно-белых галлюциногенных образов.
Нет желания погружаться в чужую депрессию - не смотрите.

Развитие чёрного пса / The Black Dog's progress
Страна: Великобритания
Жанр: авторская анимация
Год выпуска: 2008
Продолжительность: 00:03:15
Перевод: не требуется
Cубтитры: нет
Описание: Нестандартно выполненный мультфильм (сюжет демонстрируется одновременно на нескольких листающихся блокнотах) повествует историю пса, выброшенного хозяевами, скитающегося и подвергающегося актам насилия. Такое вот развитие.
Пять фестивальных наград.
Качество видео: WEBRip-AVC
Формат видео: MP4
Видео: 2510 kbps, 1280х720 (16:9), 25.000 fps, AVC (High@L3.1)
Аудио: 151 kbps, 44.1 kHz, 2 channels, AAC (LC)

MediaInfo

General
Complete name : The Black Dog's progress (2008).mp4
Format : MPEG-4
Format profile : Base Media
Codec ID : isom
File size : 62.0 MiB
Duration : 3mn 15s
Overall bit rate mode : Variable
Overall bit rate : 2 664 Kbps
Encoded date : UTC 2011-08-21 12:53:27
Tagged date : UTC 2011-08-22 12:53:28
Video
ID : 1
Format : AVC
Format/Info : Advanced Video Codec
Format profile : High@L3.1
Format settings, CABAC : Yes
Format settings, ReFrames : 4 frames
Codec ID : avc1
Codec ID/Info : Advanced Video Coding
Duration : 3mn 15s
Bit rate : 2 510 Kbps
Maximum bit rate : 5 027 Kbps
Width : 1 280 pixels
Height : 720 pixels
Display aspect ratio : 16:9
Frame rate mode : Constant
Frame rate : 25.000 fps
Color space : YUV
Chroma subsampling : 4:2:0
Bit depth : 8 bits
Scan type : Progressive
Bits/(Pixel*Frame) : 0.109
Stream size : 58.4 MiB (94%)
Writing library : Vimeo Encoder
Encoded date : UTC 2011-08-21 12:53:27
Tagged date : UTC 2011-08-21 12:53:27
Audio
ID : 2
Format : AAC
Format/Info : Advanced Audio Codec
Format profile : LC
Codec ID : 40
Duration : 3mn 15s
Bit rate mode : Variable
Bit rate : 151 Kbps
Maximum bit rate : 187 Kbps
Channel(s) : 2 channels
Channel positions : Front: L R
Sampling rate : 44.1 KHz
Compression mode : Lossy
Stream size : 3.50 MiB (6%)
Encoded date : UTC 2011-08-21 12:53:27
Tagged date : UTC 2011-08-21 12:53:27

Скриншот c названием фильма

Скриншоты

Лошадь. Клей / Horse. Glue
Страна: Великобритания
Жанр: авторская анимация
Год выпуска: 2010
Продолжительность: 00:06:55
Перевод: не требуется
Cубтитры: нет
Описание: Наслаиваясь друг на друга, демонстрируются сразу два сюжета "Клей" (на киноэкране) и "Лошадь" (на телеэкране). Что конкретно происходит в сюжетах - не ясно. Ясно, что ничего хорошего.
Качество видео: WEBRip-AVC
Формат видео: MP4
Видео: 2000 kbps, 1280х720 (16:9), 25.000 fps, AVC (High@L3.1)
Аудио: 157 kbps, 44.1 kHz, 2 channels, AAC (LC)

MediaInfo

General
Complete name : Horse Glue (2010).mp4
Format : MPEG-4
Format profile : Base Media
Codec ID : isom
File size : 107 MiB
Duration : 6mn 55s
Overall bit rate mode : Variable
Overall bit rate : 2 160 Kbps
Encoded date : UTC 2011-01-24 19:39:49
Tagged date : UTC 2011-01-25 19:39:51
Video
ID : 1
Format : AVC
Format/Info : Advanced Video Codec
Format profile : High@L3.1
Format settings, CABAC : Yes
Format settings, ReFrames : 4 frames
Codec ID : avc1
Codec ID/Info : Advanced Video Coding
Duration : 6mn 55s
Bit rate : 2 000 Kbps
Maximum bit rate : 3 757 Kbps
Width : 1 280 pixels
Height : 720 pixels
Display aspect ratio : 16:9
Frame rate mode : Constant
Frame rate : 25.000 fps
Color space : YUV
Chroma subsampling : 4:2:0
Bit depth : 8 bits
Scan type : Progressive
Bits/(Pixel*Frame) : 0.087
Stream size : 98.9 MiB (93%)
Writing library : Vimeo Encoder
Encoded date : UTC 2011-01-24 19:39:49
Tagged date : UTC 2011-01-24 19:39:50
Audio
ID : 2
Format : AAC
Format/Info : Advanced Audio Codec
Format profile : LC
Codec ID : 40
Duration : 6mn 55s
Bit rate mode : Variable
Bit rate : 157 Kbps
Maximum bit rate : 251 Kbps
Channel(s) : 2 channels
Channel positions : Front: L R
Sampling rate : 44.1 KHz
Compression mode : Lossy
Stream size : 7.77 MiB (7%)
Encoded date : UTC 2011-01-24 19:39:50
Tagged date : UTC 2011-01-24 19:39:50

Скриншоты c названием фильма

Скриншоты

Скрытое место / Hidden place
Страна: Великобритания
Жанр: авторская анимация
Год выпуска: 2012
Продолжительность: 00:02:41
Перевод: не требуется
Субтитры: нет
Описание: Место действия - подвал. Существо с головой утки оживляет предметы, устраивая разнузданное веселье. Надолго ли?
Качество видео: WEBRip-AVC
Формат видео: MP4
Видео: 2507 kbps, 1280х720 (16:9), 25.000 fps, AVC (High@L3.1)
Аудио: 153 kbps, 44.1 kHz, 2 channels, AAC (LC)

MediaInfo

General
Complete name : Hidden place (2012).mp4
Format : MPEG-4
Format profile : Base Media
Codec ID : isom
File size : 51.1 MiB
Duration : 2mn 41s
Overall bit rate mode : Variable
Overall bit rate : 2 662 Kbps
Encoded date : UTC 2012-08-26 16:13:06
Tagged date : UTC 2012-08-27 16:13:06
Video
ID : 1
Format : AVC
Format/Info : Advanced Video Codec
Format profile : High@L3.1
Format settings, CABAC : Yes
Format settings, ReFrames : 4 frames
Codec ID : avc1
Codec ID/Info : Advanced Video Coding
Duration : 2mn 41s
Bit rate : 2 507 Kbps
Maximum bit rate : 6 336 Kbps
Width : 1 280 pixels
Height : 720 pixels
Display aspect ratio : 16:9
Frame rate mode : Constant
Frame rate : 25.000 fps
Color space : YUV
Chroma subsampling : 4:2:0
Bit depth : 8 bits
Scan type : Progressive
Bits/(Pixel*Frame) : 0.109
Stream size : 48.1 MiB (94%)
Writing library : Vimeo Encoder
Encoded date : UTC 2012-08-26 16:13:06
Tagged date : UTC 2012-08-26 16:13:06
Audio
ID : 2
Format : AAC
Format/Info : Advanced Audio Codec
Format profile : LC
Codec ID : 40
Duration : 2mn 40s
Bit rate mode : Variable
Bit rate : 153 Kbps
Maximum bit rate : 189 Kbps
Channel(s) : 2 channels
Channel positions : Front: L R
Sampling rate : 44.1 KHz
Compression mode : Lossy
Stream size : 2.92 MiB (6%)
Encoded date : UTC 2012-08-26 16:13:06
Tagged date : UTC 2012-08-26 16:13:06

Скриншот c названием фильма

Скриншоты




Показать сообщения:    

Текущее время: 04-Дек 15:14

Часовой пояс: UTC + 3


Вы не можете начинать темы
Вы не можете отвечать на сообщения
Вы не можете редактировать свои сообщения
Вы не можете удалять свои сообщения
Вы не можете голосовать в опросах
Вы не можете прикреплять файлы к сообщениям
Вы не можете скачивать файлы