Крот на море / The Mole at the sea (Анна Кадыкова) [2012, Россия, авторская анимация, WEBRip-AVC]


 

[Цитировать]

Крот на море / The Mole at the sea
Страна: Россия
Жанр: авторская анимация
Год выпуска: 2012
Продолжительность: 00:05:00
Перевод: не требуется
Cубтитры: нет
Режиссёр: Анна Кадыкова
Музыка: "Chizhik-Jazz-Quartet"
Описание: Впечатлившись рекламой в журнале, крот отправляется отдыхать на море. Реальность оказывается не столь радужной: среди отдыхающих на пляже просто не протолкнуться...
Доп. информация: Фильм студентки школы-студии "Шар", ученицы Ивана Максимова.
Качество видео: WEBRip-AVC
Формат видео: MKV
Видео: 1791 kbps, 1232х688 (16:9), 25.000 fps, AVC (High@L4.1)
Аудио: 192 kbps, 48.0 kHz, 2 channels, AC-3

MediaInfo

General
Unique ID : 245776498614162542868702730647121180501 (0xB8E6D4F2DC715463908D3EA29A403755)
Complete name : Крот на море (2012).mkv
Format : Matroska
Format version : Version 4 / Version 2
File size : 72.4 MiB
Duration : 5mn 0s
Overall bit rate : 2 023 Kbps
Encoded date : UTC 2014-07-10 09:06:07
Writing application : mkvmerge v7.0.0 ('Where We Going') 32bit built on Jun 9 2014 15:08:34
Writing library : libebml v1.3.0 + libmatroska v1.4.1
DURATION : 00:05:00.032000000
NUMBER_OF_FRAMES : 9376
NUMBER_OF_BYTES : 7200768
_STATISTICS_WRITING_APP : mkvmerge v7.0.0 ('Where We Going') 32bit built on Jun 9 2014 15:08:34
_STATISTICS_WRITING_DATE_UTC : 2014-07-10 09:06:07
_STATISTICS_TAGS : BPS DURATION NUMBER_OF_FRAMES NUMBER_OF_BYTES
Video
ID : 1
Format : AVC
Format/Info : Advanced Video Codec
Format profile : High@L4.1
Format settings, CABAC : Yes
Format settings, ReFrames : 9 frames
Codec ID : V_MPEG4/ISO/AVC
Duration : 5mn 0s
Bit rate : 1 791 Kbps
Width : 1 232 pixels
Height : 688 pixels
Display aspect ratio : 16:9
Frame rate mode : Constant
Frame rate : 25.000 fps
Color space : YUV
Chroma subsampling : 4:2:0
Bit depth : 8 bits
Scan type : Progressive
Bits/(Pixel*Frame) : 0.085
Stream size : 64.1 MiB (89%)
Writing library : x264 core 142 r2409kMod d6b4e63
Encoding settings : cabac=1 / ref=9 / deblock=1:-2:-1 / analyse=0x3:0x133 / me=umh / subme=11 / psy=1 / fade_compensate=0.00 / psy_rd=0.60:0.00 / mixed_ref=1 / me_range=32 / chroma_me=1 / trellis=2 / 8x8dct=1 / cqm=0 / deadzone=21,11 / fast_pskip=0 / chroma_qp_offset=-2 / threads=3 / lookahead_threads=1 / sliced_threads=0 / nr=0 / decimate=1 / interlaced=0 / bluray_compat=0 / constrained_intra=0 / fgo=0 / bframes=16 / b_pyramid=2 / b_adapt=2 / b_bias=0 / direct=3 / weightb=1 / open_gop=0 / weightp=2 / keyint=250 / keyint_min=25 / scenecut=40 / intra_refresh=0 / rc_lookahead=70 / rc=crf / mbtree=0 / crf=18.0000 / qcomp=0.60 / qpmin=0 / qpmax=69 / qpstep=4 / vbv_maxrate=50000 / vbv_bufsize=62500 / crf_max=0.0 / nal_hrd=none / filler=0 / ip_ratio=1.40 / pb_ratio=1.30 / aq=3:1.00
Default : Yes
Forced : No
Color primaries : BT.709
Transfer characteristics : BT.709
Matrix coefficients : BT.709
Audio
ID : 2
Format : AC-3
Format/Info : Audio Coding 3
Mode extension : CM (complete main)
Format settings, Endianness : Big
Codec ID : A_AC3
Duration : 5mn 0s
Bit rate mode : Constant
Bit rate : 192 Kbps
Channel(s) : 2 channels
Channel positions : Front: L R
Sampling rate : 48.0 KHz
Bit depth : 16 bits
Compression mode : Lossy
Stream size : 6.87 MiB (9%)
Default : Yes
Forced : No

Скриншот c названием фильма

Скриншоты




Показать сообщения:    

Текущее время: 04-Дек 13:16

Часовой пояс: UTC + 3


Вы не можете начинать темы
Вы не можете отвечать на сообщения
Вы не можете редактировать свои сообщения
Вы не можете удалять свои сообщения
Вы не можете голосовать в опросах
Вы не можете прикреплять файлы к сообщениям
Вы не можете скачивать файлы