Бум-Бум, дочь рыбака / Bum-Bum, baby of the fisher (Иван Максимов) [2013, Россия, авторская анимация, WEBRip-AVC]


 

[Цитировать]

Бум-Бум, дочь рыбака / Bum-Bum, baby of the fisher
Страна: Россия
Жанр: авторская анимация
Год выпуска: 2013
Продолжительность: 00:08:25
Перевод: не требуется
Cубтитры: нет
Режиссёр: Иван Максимов
Описание: Повествование о жизни прибрежной деревушки, в центре которого маленькая девчонка с большим носом, вылупившаяся из яйца и удочерённая местным рыбаком.
Качество видео: WEBRip-AVC
Формат видео: MP4
Видео: 1102 kbps, 1280х720 (16:9), 25.000 fps, AVC (High@L3.1)
Аудио: 192 kbps, 44.1 kHz, 2 channels, AAC (LC)

MediaInfo

General
Complete name : Бум-Бум, дочь рыбака (2013).mp4
Format : MPEG-4
Format profile : Base Media / Version 2
Codec ID : mp42
File size : 78.1 MiB
Duration : 8mn 25s
Overall bit rate mode : Variable
Overall bit rate : 1 296 Kbps
Encoded date : UTC 2014-03-10 22:26:46
Tagged date : UTC 2014-03-10 22:26:46
gsst : 0
gstd : 505706
gssd : BADC23001MH1404563365237777
gshh : r1---sn-5go7dn7s.googlevideo.com
Video
ID : 1
Format : AVC
Format/Info : Advanced Video Codec
Format profile : High@L3.1
Format settings, CABAC : Yes
Format settings, ReFrames : 1 frame
Format settings, GOP : M=1, N=60
Codec ID : avc1
Codec ID/Info : Advanced Video Coding
Duration : 8mn 25s
Bit rate : 1 102 Kbps
Maximum bit rate : 2 966 Kbps
Width : 1 280 pixels
Height : 720 pixels
Display aspect ratio : 16:9
Frame rate mode : Constant
Frame rate : 25.000 fps
Color space : YUV
Chroma subsampling : 4:2:0
Bit depth : 8 bits
Scan type : Progressive
Bits/(Pixel*Frame) : 0.048
Stream size : 66.4 MiB (85%)
Tagged date : UTC 2014-03-10 22:26:53
Audio
ID : 2
Format : AAC
Format/Info : Advanced Audio Codec
Format profile : LC
Codec ID : 40
Duration : 8mn 25s
Bit rate mode : Variable
Bit rate : 192 Kbps
Maximum bit rate : 202 Kbps
Channel(s) : 2 channels
Channel positions : Front: L R
Sampling rate : 44.1 KHz
Compression mode : Lossy
Stream size : 11.6 MiB (15%)
Title : IsoMedia File Produced by Google, 5-11-2011
Encoded date : UTC 2014-03-10 22:26:50
Tagged date : UTC 2014-03-10 22:26:53

Скриншот c названием фильма

Скриншоты




Показать сообщения:    

Текущее время: 06-Дек 19:05

Часовой пояс: UTC + 3


Вы не можете начинать темы
Вы не можете отвечать на сообщения
Вы не можете редактировать свои сообщения
Вы не можете удалять свои сообщения
Вы не можете голосовать в опросах
Вы не можете прикреплять файлы к сообщениям
Вы не можете скачивать файлы