Треугольник / Triangle (Грэйс-Найоон Рии / Grace-Nayoon Rhee) [2012, США, авторская анимация, WEBRip]


 

[Цитировать]

Треугольник / Triangle
Страна: США
Жанр: авторская анимация
Год выпуска: 2012
Продолжительность: 00:06:09
Перевод: не требуется
Cубтитры: нет
Режиссёр: Грэйс-Найоон Рии / Grace-Nayoon Rhee
Описание: В мир, где всё круглое и мягкое, один человек приносит невидаль - треугольники. Они хрупкие, с острыми краями. Они необратимо меняют окружающую действительность...
Фильм студентки Калифорнийского института искусств.
Качество видео: WEBRip
Формат видео: AVI
Видео: 2350 kbps, 720х400 (16:9), 23.976 fps, MPEG-4 Visual (XviD)
Аудио: 128 kbps, 44.1 kHz, 2 channels, MPEG Audio (MP3)

MediaInfo

General
Complete name : Triangle (2012).avi
Format : AVI
Format/Info : Audio Video Interleave
File size : 110 MiB
Duration : 6mn 9s
Overall bit rate : 2 488 Kbps
Writing application : VirtualDubMod 1.5.10.3 (build 2550/release)
Writing library : VirtualDubMod build 2550/release
Video
ID : 0
Format : MPEG-4 Visual
Format profile : Advanced Simple@L5
Format settings, BVOP : 2
Format settings, QPel : No
Format settings, GMC : No warppoints
Format settings, Matrix : Custom
Codec ID : XVID
Codec ID/Hint : XviD
Duration : 6mn 9s
Bit rate : 2 350 Kbps
Width : 720 pixels
Height : 400 pixels
Display aspect ratio : 16:9
Frame rate : 23.976 fps
Color space : YUV
Chroma subsampling : 4:2:0
Bit depth : 8 bits
Scan type : Progressive
Compression mode : Lossy
Bits/(Pixel*Frame) : 0.340
Stream size : 104 MiB (94%)
Writing library : XviD 65
Audio
ID : 1
Format : MPEG Audio
Format version : Version 1
Format profile : Layer 3
Mode : Joint stereo
Mode extension : MS Stereo
Codec ID : 55
Codec ID/Hint : MP3
Duration : 6mn 9s
Bit rate mode : Constant
Bit rate : 128 Kbps
Channel(s) : 2 channels
Sampling rate : 44.1 KHz
Compression mode : Lossy
Stream size : 5.64 MiB (5%)
Alignment : Split accross interleaves
Interleave, duration : 42 ms (1.00 video frame)
Interleave, preload duration : 500 ms
Writing library : LAME3.99r
Encoding settings : -m j -V 4 -q 3 -lowpass 17 -b 128

Скриншот c названием фильма

Скриншоты




Показать сообщения:    

Текущее время: 04-Дек 13:18

Часовой пояс: UTC + 3


Вы не можете начинать темы
Вы не можете отвечать на сообщения
Вы не можете редактировать свои сообщения
Вы не можете удалять свои сообщения
Вы не можете голосовать в опросах
Вы не можете прикреплять файлы к сообщениям
Вы не можете скачивать файлы