Граница / Frontiere (Кристиан Фишер / Christian Fischer) [1997, Германия, авторская анимация, DVDRip]


 

[Цитировать]

Граница / Frontiere
Страна: Германия
Жанр: авторская анимация
Год выпуска: 1997
Продолжительность: 00:05:07
Перевод: не требуется
Cубтитры: нет
Режиссёр: Кристиан Фишер / Christian Fischer
Описание: Притча о двух пластилиновых человечках, не пожелавших уступить друг другу путь среди бескрайней пустыни.
Доп. информация: Приз за лучший студенческий фильм смотра в Кобленце (1997)
Приз фестиваля "Annecy" за лучшую дипломную работу (1998)
Приз зрителей на фестивале "Matita" (1998)
Качество видео: DVDRip
Формат видео: AVI
Видео: 709 kbps, 640х480 (4:3), 25.000 fps, MPEG-4 Visual (XviD)
Аудио: 128 kbps, 48.0 kHz, 2 channels, MPEG Audio (MP3)

MediaInfo

General
Complete name : Frontiere (1997).avi
Format : AVI
Format/Info : Audio Video Interleave
File size : 31.2 MiB
Duration : 5mn 7s
Overall bit rate : 850 Kbps
Writing application : Lavf54.63.104
Writing library : VirtualDub build 32842/release
Video
ID : 0
Format : MPEG-4 Visual
Format profile : Advanced Simple@L5
Format settings, BVOP : 2
Format settings, QPel : No
Format settings, GMC : No warppoints
Format settings, Matrix : Default (H.263)
Muxing mode : Packed bitstream
Codec ID : XVID
Codec ID/Hint : XviD
Duration : 5mn 7s
Bit rate : 709 Kbps
Width : 640 pixels
Height : 480 pixels
Display aspect ratio : 4:3
Frame rate : 25.000 fps
Color space : YUV
Chroma subsampling : 4:2:0
Bit depth : 8 bits
Scan type : Progressive
Compression mode : Lossy
Bits/(Pixel*Frame) : 0.092
Stream size : 26.0 MiB (83%)
Writing library : XviD 1.2.1 (UTC 2008-12-04)
Audio
ID : 1
Format : MPEG Audio
Format version : Version 1
Format profile : Layer 3
Mode : Joint stereo
Mode extension : MS Stereo
Codec ID : 55
Codec ID/Hint : MP3
Duration : 5mn 7s
Bit rate mode : Constant
Bit rate : 128 Kbps
Channel(s) : 2 channels
Sampling rate : 48.0 KHz
Compression mode : Lossy
Stream size : 4.69 MiB (15%)
Alignment : Aligned on interleaves
Interleave, duration : 24 ms (0.60 video frame)
Interleave, preload duration : 504 ms
Writing library : LAME3.99.5

Скриншот c названием фильма

Скриншоты




Показать сообщения:    

Текущее время: 05-Дек 07:30

Часовой пояс: UTC + 3


Вы не можете начинать темы
Вы не можете отвечать на сообщения
Вы не можете редактировать свои сообщения
Вы не можете удалять свои сообщения
Вы не можете голосовать в опросах
Вы не можете прикреплять файлы к сообщениям
Вы не можете скачивать файлы