Где-то / Somewhere (Николас Менар / Nicolas Ménard) [2013, Великобритания, авторская анимация, WEBRip]


 

[Цитировать]

Где-то / Somewhere
Страна: Великобритания
Жанр: авторская анимация
Год выпуска: 2013
Продолжительность: 00:06:50
Перевод: не требуется
Cубтитры: нет
Режиссёр: Николас Менар / Nicolas Ménard
Музыка: "Disasterpeace"
Описание: Грустная история не очень компактного астронавта, который, отправляясь к иным мирам, оставил на память любимой девушке свою левую руку.
Курсовая работа студента Королевского колледжа искусств.
Качество видео: WEBRip
Формат видео: AVI
Видео: 1794 kbps, 720х400 (16:9), 24.000 fps, MPEG-4 Visual (XviD)
Аудио: 128 kbps, 48.0 kHz, 2 channels, MPEG Audio (MP3)

MediaInfo

General
Complete name : Somewhere (2013).avi
Format : AVI
Format/Info : Audio Video Interleave
File size : 94.4 MiB
Duration : 6mn 50s
Overall bit rate : 1 931 Kbps
Writing application : VirtualDubMod 1.5.10.3 (build 2550/release)
Writing library : VirtualDubMod build 2550/release
Video
ID : 0
Format : MPEG-4 Visual
Format profile : Advanced Simple@L5
Format settings, BVOP : 2
Format settings, QPel : No
Format settings, GMC : No warppoints
Format settings, Matrix : Custom
Codec ID : XVID
Codec ID/Hint : XviD
Duration : 6mn 50s
Bit rate : 1 794 Kbps
Width : 720 pixels
Height : 400 pixels
Display aspect ratio : 16:9
Frame rate : 24.000 fps
Color space : YUV
Chroma subsampling : 4:2:0
Bit depth : 8 bits
Scan type : Progressive
Compression mode : Lossy
Bits/(Pixel*Frame) : 0.259
Stream size : 87.7 MiB (93%)
Writing library : XviD 65
Audio
ID : 1
Format : MPEG Audio
Format version : Version 1
Format profile : Layer 3
Mode : Joint stereo
Mode extension : MS Stereo
Codec ID : 55
Codec ID/Hint : MP3
Duration : 6mn 49s
Bit rate mode : Constant
Bit rate : 128 Kbps
Channel(s) : 2 channels
Sampling rate : 48.0 KHz
Compression mode : Lossy
Stream size : 6.26 MiB (7%)
Alignment : Aligned on interleaves
Interleave, duration : 42 ms (1.00 video frame)
Interleave, preload duration : 504 ms
Writing library : LAME3.99r
Encoding settings : -m j -V 4 -q 3 -lowpass 17 -b 128

Скриншот c названием фильма

Скриншоты




Показать сообщения:    

Текущее время: 02-Дек 21:16

Часовой пояс: UTC + 3


Вы не можете начинать темы
Вы не можете отвечать на сообщения
Вы не можете редактировать свои сообщения
Вы не можете удалять свои сообщения
Вы не можете голосовать в опросах
Вы не можете прикреплять файлы к сообщениям
Вы не можете скачивать файлы