Трудный путь / Heavy Traffic (Ральф Бакши / Ralph Bakshi) [1973, США, драма, комедия, анимация, BDRip] MVO + Original Eng


 

[Цитировать]

Трудный путь / Heavy Traffic
Страна: США
Жанр: драма, комедия, анимация
Год выпуска: 1973
Продолжительность: 01:16:43
Перевод: Профессиональный (многоголосый закадровый)
Cубтитры: нет
Оригинальная аудиодорожка: английский
Режиссер: Ральф Бакши / Ralph Bakshi
В ролях: Джозеф Кауфман, Беверли Хоуп Эткинсон, Фрэнк ДеКова, Терри Хевн, Мэри Дин Лауриа, Жаклин Миллс, Лиллиэн Адамс, Джейми Фарр, Роберт Истон, Чарльз Гордон
О фильме: Майкл, молодой, но ощущающий себя несчастным, художник живет со своей придурочной мамашей и сразу двумя отчимами. Когда такая сволочная жизнь становится совершенно непереносимой, он сбегает из дома, но сталкивается с еще более страшными проблемами. Ему открывается скрытый от обычных людских глаз, неизвестный мир улиц дикого, запретного Нью-Йорка. Бездомные бродяги, проститутки, вооруженные гангстеры, продажные менты — этот мир оказался совсем не таким романтичным, как его иногда представляют в кино...
Доп. информация: http://www.imdb.com/title/tt0070165/
Исходник: http://teatrix.ru/viewtopic.php?t=4968
Сэмпл: http://rusfolder.com/40944093
Качество видео: BDRip
Формат видео: AVI
Видео: 720x432 (1.66:1), 23.976 fps, XviD build 73 ~2276 kbps avg, 0.30 bit/pixel
Аудио #1: 48 kHz, AC3 Dolby Digital, 2/0 (L,R) ch, ~192 kbps avg - русский
Аудио #2: 48 kHz, AC3 Dolby Digital, 2/0 (L,R) ch, ~224 kbps avg - оригинал

MediaInfo

Общее
Полное имя : D:\Фильмы\Трудный путь\Heavy.Traffic.1973.BDRip.avi
Формат : AVI
Формат/Информация : Audio Video Interleave
Размер файла : 1,45 Гбайт
Продолжительность : 1 ч. 16 м.
Общий поток : 2705 Кбит/сек
Программа кодирования : VirtualDubMod 1.5.10.3 | www.virtualdub-fr.org || (build 2550/release)
Библиотека кодирования : VirtualDubMod build 2550/release
Правообладатель : rip by Judas_X
Видео
Идентификатор : 0
Формат : MPEG-4 Visual
Профиль формата : Advanced Simple@L5
Параметр BVOP формата : 1
Параметр QPel формата : Нет
Параметр GMC формата : Без точки перехода
Параметр матрицы формата : Выборочная
Идентификатор кодека : XVID
Идентификатор кодека/Подсказка : XviD
Продолжительность : 1 ч. 16 м.
Битрейт : 2276 Кбит/сек
Ширина : 720 пикселей
Высота : 432 пикселя
Соотношение сторон : 1,667
Частота кадров : 23,976 кадра/сек
Цветовое пространство : YUV
Субдискретизация насыщенности : 4:2:0
Битовая глубина : 8 бит
Тип развёртки : Прогрессивная
Метод сжатия : С потерями
Бит/(Пиксели*Кадры) : 0.305
Размер потока : 1,22 Гбайт (84%)
Библиотека кодирования : XviD 73
Аудио #1
Идентификатор : 1
Формат : AC-3
Формат/Информация : Audio Coding 3
Расширение режима : CM (complete main)
Параметр Endianness формата : Big
Идентификатор кодека : 2000
Продолжительность : 1 ч. 16 м.
Вид битрейта : Постоянный
Битрейт : 192 Кбит/сек
Каналы : 2 канала
Расположение каналов : Front: L R
Частота : 48,0 КГц
Битовая глубина : 16 бит
Метод сжатия : С потерями
Размер потока : 105 Мбайт (7%)
Выравнивание : Разделение по промежуткам
Продолжительность промежутка : 42 мс. (1,00 видеокадр)
Время предзагрузки промежутка : 500 мс.
Аудио #2
Идентификатор : 2
Формат : AC-3
Формат/Информация : Audio Coding 3
Расширение режима : CM (complete main)
Параметр Endianness формата : Big
Идентификатор кодека : 2000
Продолжительность : 1 ч. 16 м.
Вид битрейта : Постоянный
Битрейт : 224 Кбит/сек
Каналы : 2 канала
Расположение каналов : Front: L R
Частота : 48,0 КГц
Битовая глубина : 16 бит
Метод сжатия : С потерями
Размер потока : 123 Мбайт (8%)
Выравнивание : Разделение по промежуткам
Продолжительность промежутка : 42 мс. (1,00 видеокадр)
Время предзагрузки промежутка : 500 мс.

Скриншоты





Показать сообщения:    

Текущее время: 03-Дек 09:49

Часовой пояс: UTC + 3


Вы не можете начинать темы
Вы не можете отвечать на сообщения
Вы не можете редактировать свои сообщения
Вы не можете удалять свои сообщения
Вы не можете голосовать в опросах
Вы не можете прикреплять файлы к сообщениям
Вы не можете скачивать файлы