Кибернетическая бабушка / Kyberneticka Babicka (Иржи Трнка / Jiri Trnka) [1962, Чехословакия, Анимация, DVDRip] VO (Andi) + Sub Rus


 

[Цитировать]

Кибернетическая бабушка / Kyberneticka Babicka
Страна: Чехословакия
Жанр: Анимация
Год выпуска: 1962
Продолжительность: 00:29:30
Перевод: Одноголосый закадровый Andi
Cубтитры: русские
Оригинальная аудиодорожка: нет
Режиссер: Иржи Трнка / Jiri Trnka
Описание: В 1962 году Иржи Трнка создает фантастическую картину о проблеме свободы человека от кабалы, в которую могут ввергнуть его усовершенствованные им же самим вещи, о конфликте духовных ценностей и все больше окружающего нас холодного мира техники. Действие фильма происходит в каком-то отдаленном будущем, когда люди уже основательно освоили космос и легко преодолевают межзвездные пространства.
Родители девочки получили квартиру на новой планете, заняты ее благоустройством, а дочку пока что поручили «земной» бабушке. Но вот из космоса приходит телеграмма. Девочка должна отправиться к родителям, и бабушка провожает ее на особый космический вокзал, откуда она летит на далекую планету и, наконец, прибывает в другую галактику, где живут ее родители. Тут-то и появляется кибернетическая бабушка. Она играет с ребенком, и даже способна «рассказывать сказки», ее механические руки, устроенные в поручнях кресла, крутят проволоку-прыгалку. Кружась вокруг девочки, машина играет с ней в мяч. Постепенно игра эта приобретает все более резкий оттенок. Активность робота возрастает, его запрограммированное стремление к максимально эффективному воспитанию становится все более несносным. Видимо, машина испортилась, что-то не сработало, заело. Девочка пугается и бежит, бабушка-кресло ее преследует, все энергичнее выкрикивая при этом общеизвестные истины, вроде: «в здоровом теле — здоровый дух», «чистота — залог здоровья», «время — деньги». В конце фильма вновь появляется настоящая живая бабушка, она успокаивает своей нежностью и заботой вырвавшуюся из-под опеки робота девочку, и все возвращается к прежним нормальным земным формам жизни и человеческих отношений.
Доп. информация: - Мультфильм перевёл с голоса Сергей Харченко.
- Подгонка и редактирование субтитров - Obzhorka.
Сэмпл: http://multi-up.com/978700
Качество видео: DVDRip
Формат видео: AVI
Видео: 704x544 (1.29:1), 23.976 fps, XviD build 50 ~2229 kbps avg, 0.24 bit/pixel
Аудио: 48 kHz, AC3 Dolby Digital, 2/0 (L,R) ch, ~192.00 kbps avg

MediaInfo

Общее
Полное имя : L:\Kyberneticka_babicka (VO Andi)\Trnka_Kyberneticka_babicka_1962_.avi
Формат : AVI
Формат/Информация : Audio Video Interleave
Размер файла : 513 Мбайт
Продолжительность : 29 м.
Общий поток : 2431 Кбит/сек
Программа кодирования : VirtualDubMod 1.5.10.2 (build 2540/release)
Библиотека кодирования : VirtualDubMod build 2540/release
Видео
Идентификатор : 0
Формат : MPEG-4 Visual
Профиль формата : Advanced Simple@L5
Параметр BVOP формата : 2
Параметр QPel формата : Нет
Параметр GMC формата : Без точки перехода
Параметр матрицы формата : Default (H.263)
Идентификатор кодека : XVID
Идентификатор кодека/Подсказка : XviD
Продолжительность : 29 м.
Битрейт : 2230 Кбит/сек
Ширина : 704 пикселя
Высота : 544 пикселя
Соотношение сторон : 1,294
Частота кадров : 23,976 кадра/сек
Цветовое пространство : YUV
Субдискретизация насыщенности : 4:2:0
Битовая глубина : 8 бит
Тип развёртки : Прогрессивная
Метод сжатия : С потерями
Бит/(Пиксели*Кадры) : 0.243
Размер потока : 470 Мбайт (92%)
Библиотека кодирования : XviD 1.2.1 (UTC 2008-12-04)
Аудио
Идентификатор : 1
Формат : AC-3
Формат/Информация : Audio Coding 3
Расширение режима : CM (complete main)
Параметр Endianness формата : Big
Идентификатор кодека : 2000
Продолжительность : 29 м.
Вид битрейта : Постоянный
Битрейт : 192 Кбит/сек
Каналы : 2 канала
Расположение каналов : Front: L R
Частота : 48,0 КГц
Битовая глубина : 16 бит
Метод сжатия : С потерями
Размер потока : 40,5 Мбайт (8%)
Выравнивание : Разделение по промежуткам
Продолжительность промежутка : 42 мс. (1,00 видеокадр)
Время предзагрузки промежутка : 500 мс.

Скриншоты




Показать сообщения:    

Текущее время: 06-Дек 13:14

Часовой пояс: UTC + 3


Вы не можете начинать темы
Вы не можете отвечать на сообщения
Вы не можете редактировать свои сообщения
Вы не можете удалять свои сообщения
Вы не можете голосовать в опросах
Вы не можете прикреплять файлы к сообщениям
Вы не можете скачивать файлы