Бобби / Bobby Yeah (Роберт Морган / Robert Morgan) [2011, Великобритания, триллер, ужасы, сюрреализм, WEB-DLRip]


 

[Цитировать]

Бобби / Bobby Yeah
Страна: Великобритания
Жанр: триллер, ужасы, сюрреализм
Год выпуска: 2011
Продолжительность: 23:18
Перевод: Не требуется
Cубтитры: нет
Режиссер: Роберт Морган / Robert Morgan
Описание: Cюрреалистичный, отвратительный и тем не менее приковывающий внимание короткометражный кукольный мультфильм от Роберта Моргана - создателя таких известных короткометражек как "Кот с человеческими руками" и "Separation".
Сюжет у "Bobby Yeah" в принципе есть, но, с одной стороны, пересказать его без спойлеров не представляется возможным да он и простоват если проговаривать его словами, с другой стороны, в подобных короткометражках главное - создаваемая атмосфера, а с атмосферой у творения Моргана всё как всегда превосходно.

Качество видео: WEB-DLRip Исходник
Формат видео: AVI
Видео: 608x336, 25.000 fps, XviD ~1024 kbps avg, 0.200 bit/pixel
Аудио: 48 kHz, MPEG Layer 3, 2 ch, ~128 kbps avg

MediaInfo

Общее
Полное имя                               : D:\Раздачи\Bobby YeahWEB-DLRip.avi
Формат                                   : AVI
Формат/Информация                        : Audio Video Interleave
Размер файла                             : 194 Мбайт
Продолжительность                        : 23 м.
Общий поток                              : 1162 Кбит/сек
Программа кодирования                    : VirtualDubMod 1.5.10.3 | www.virtualdub-fr.org || (build 2550/release)
Библиотека кодирования                   : VirtualDubMod build 2550/release
Видео
Идентификатор                            : 0
Формат                                   : MPEG-4 Visual
Профиль формата                          : Advanced Simple@L5
Параметр BVOP формата                    : 2
Параметр QPel формата                    : Нет
Параметр GMC формата                     : Без точки перехода
Параметр матрицы формата                 : Default (MPEG)
Идентификатор кодека                     : XVID
Идентификатор кодека/Подсказка           : XviD
Продолжительность                        : 23 м.
Битрейт                                  : 1024 Кбит/сек
Ширина                                   : 608 пикселей
Высота                                   : 336 пикселей
Соотношение сторон                       : 16:9
Частота кадров                           : 25,000 кадров/сек
Цветовое пространство                    : YUV
Субдискретизация насыщенности            : 4:2:0
Битовая глубина                          : 8 бит
Тип развёртки                            : Прогрессивная
Метод сжатия                             : С потерями
Бит/(Пиксели*Кадры)                      : 0.200
Размер потока                            : 171 Мбайт (88%)
Библиотека кодирования                   : XviD 1.2.1 (UTC 2008-12-04)
Аудио
Идентификатор                            : 1
Формат                                   : MPEG Audio
Версия формата                           : Version 1
Профиль формата                          : Layer 3
Режим                                    : Joint stereo
Расширение режима                        : MS Stereo
Идентификатор кодека                     : 55
Идентификатор кодека/Подсказка           : MP3
Продолжительность                        : 23 м.
Вид битрейта                             : Постоянный
Битрейт                                  : 128 Кбит/сек
Каналы                                   : 2 канала
Частота                                  : 48,0 КГц
Метод сжатия                             : С потерями
Размер потока                            : 21,3 Мбайт (11%)
Выравнивание                             : Соединение по промежуткам
Продолжительность промежутка             : 40  мс. (1,00 видеокадр)
Время предзагрузки промежутка            : 504  мс.
Библиотека кодирования                   : LAME3.99r
Настройки программы                      : -m j -V 4 -q 2 -lowpass 17 -b 128

Скриншот c названием фильма

Скриншоты




Показать сообщения:    

Текущее время: 09-Дек 01:01

Часовой пояс: UTC + 3


Вы не можете начинать темы
Вы не можете отвечать на сообщения
Вы не можете редактировать свои сообщения
Вы не можете удалять свои сообщения
Вы не можете голосовать в опросах
Вы не можете прикреплять файлы к сообщениям
Вы не можете скачивать файлы