Морщинки / Arrugas / Wrinkles (Игнасио Феррерас / Ignacio Ferreras) [2011, Испания, мультфильм, драма, HDRip] MVO (НТВ+)


 

[Цитировать]

Морщинки / Arrugas Страна: Испания
Жанр: мультфильм, драма
Год выпуска: 2011
Продолжительность: 01:29:27
Перевод: Профессиональный (многоголосый, закадровый) НТВ+
Cубтитры: нет
Режиссер: Игнасио Феррерас / Ignacio Ferreras
В ролях: Тачо Гонсалес, Альваро Гевара, Мэйбл Ривера, Рауль Данс, Мотсе Давила, Чаро Диас, Исабель Вальехо, Каролина Васкес, Хермана Карбальидо, Пако М. Баррейро
Описание: Фильм повествует об истории дружбы между двумя пожилыми людьми — Эмилио и Мигелем, которые являются соседями по палате в доме престарелых. Эмилио поставлен диагноз ранней стадии болезни Альцгеймера. Мигель и его приятели помогают ему избежать страшной участи — не оказаться на зловещем верхнем этаже дома престарелых, также известном как этаж безнадежных случаев. Реализация их дикого плана придает сил и наполняет юмором их ежедневное скучное времяпровождение. И хотя для некоторых из них жизни подходят к концу — это всего лишь начало чего-то нового…

Качество видео: HDRip [BDRip 720p]
Формат видео: AVI
Видео кодек: XviD
Аудио кодек: Mp3
Видео: 688x384 (1.79:1), 23.976 fps, XviD build 73 ~981 kbps avg, 0.16 bit/pixel
Аудио: 48 kHz, MPEG Layer 3, 2 ch, ~128.00 kbps avg

MediaInfo

Complete name : Morschinki.2011.HDRip.avi
Format : AVI
Format/Info : Audio Video Interleave
File size : 716 MiB
Duration : 1h 29mn
Overall bit rate : 1 119 Kbps
Writing application : VirtualDubMod 1.5.10.2 (build 2540/release)
Writing library : VirtualDubMod build 2540/release
Video
ID : 0
Format : MPEG-4 Visual
Format profile : Advanced Simple@L5
Format settings, BVOP : 2
Format settings, QPel : No
Format settings, GMC : No warppoints
Format settings, Matrix : Default (H.263)
Codec ID : XVID
Codec ID/Hint : XviD
Duration : 1h 29mn
Bit rate : 981 Kbps
Width : 688 pixels
Height : 384 pixels
Display aspect ratio : 16:9
Frame rate : 23.976 fps
Color space : YUV
Chroma subsampling : 4:2:0
Bit depth : 8 bits
Scan type : Progressive
Compression mode : Lossy
Bits/(Pixel*Frame) : 0.155
Stream size : 628 MiB (88%)
Writing library : XviD 73
Audio
ID : 1
Format : MPEG Audio
Format version : Version 1
Format profile : Layer 3
Mode : Joint stereo
Mode extension : MS Stereo
Codec ID : 55
Codec ID/Hint : MP3
Duration : 1h 29mn
Bit rate mode : Constant
Bit rate : 128 Kbps
Channel(s) : 2 channels
Sampling rate : 48.0 KHz
Compression mode : Lossy
Stream size : 81.9 MiB (11%)
Alignment : Aligned on interleaves
Interleave, duration : 42 ms (1.00 video frame)
Interleave, preload duration : 504 ms
Writing library : LAME3.99r
Encoding settings : -m j -V 4 -q 2 -lowpass 17 -b 128

Скриншоты




Показать сообщения:    

Текущее время: 10-Дек 04:11

Часовой пояс: UTC + 3


Вы не можете начинать темы
Вы не можете отвечать на сообщения
Вы не можете редактировать свои сообщения
Вы не можете удалять свои сообщения
Вы не можете голосовать в опросах
Вы не можете прикреплять файлы к сообщениям
Вы не можете скачивать файлы