Конгресс / The Congress (Ари Фольман / Ari Folman) [2013, Израиль, Германия, Польша, Люксембург, Франция, Бельгия, Фантастика, мультфильм, драма, BDRip 720p] MVO (Позитив) + Sub 2xRus, Eng, Ger, Fra + Original Eng


 

[Цитировать]

Конгресс / The Congress
Страна: Израиль, Германия, Польша, Люксембург, Франция, Бельгия
Студия: Bridgit Folman Film Gang, Entre Chien et Loup, Liverpool, Opus Film
Жанр: Фантастика, мультфильм, драма
Год выпуска: 2013
Продолжительность: 02:02:54
Перевод: Профессиональный (многоголосый закадровый) Позитив
Оригинальная аудиодорожка: английский
Режиссер: Ари Фольман / Ari Folman
В ролях: Робин Райт, Харви Кейтель, Джон Хэмм, Пол Джаматти, Коди Смит-МакФи, Дэнни Хьюстон, Сами Гэйл, Майкл Сталь-Дэвид, Майкл Лэндис, Сара Шахи
Описание: Действие этого фильма происходит в странной, совсем не похожую на нашу реальность, обитатели которой владеют особыми суперспособностями. Вот только и обладателям, и обществу в целом эти силы скорее приносят вред, чем пользу. Тем не менее герои фильма с готовностью встают на защиту несчастных. Вот только прежде, чем принимать активное участие в решении чужих проблем, им было бы неплохо разобраться со своими собственными...
Сэмпл: http://multi-up.com/976955
Тип релиза: BDRip 720p рип от CtrlHD сохранены главы как в Blu-ray
Контейнер: MKV
Видео: MPEG-4 AVC, High@L4.1, 5907 Kbps, 1280 х 692 pixels, 23.976 fps
Аудио 1: AC3, 192 Kbps, 2 channels, Front: L R, 48.0 KHz, 16 bits | RU
Аудио 2: DTS, 1509 Kbps, 6 channels, Front: L C R, Side: L R, LFE, 48.0 KHz, 24 bits | ENG
Аудио 3: AC3, 192 Kbps, 2 channels, Front: L R, 48.0 KHz, 16 bits | ENG Commentary by Director Ari Folman
Cубтитры: русские (Don_Leprikon, 2 версии), английские, немецкие, французские (SRT)

MediaInfo

General
Unique ID : 239609422458363003424480453139164277084 (0xB443189E6659E53D89CBD13E579BA95C)
Complete name : D:\kirovtorrent\The.Congress.2013.720p.BluRay.DTS.x264-CtrlHD.mkv
Format : Matroska
Format version : Version 4 / Version 2
File size : 6.83 GiB
Duration : 2h 2mn
Overall bit rate : 7 958 Kbps
Encoded date : UTC 2014-05-29 17:34:26
Writing application : mkvmerge v6.8.0 ('Theme for Great Cities') 64bit built on Mar 2 2014 21:34:26
Writing library : libebml v1.3.0 + libmatroska v1.4.1
Video
ID : 1
Format : AVC
Format/Info : Advanced Video Codec
Format profile : High@L4.1
Format settings, CABAC : Yes
Format settings, ReFrames : 9 frames
Codec ID : V_MPEG4/ISO/AVC
Duration : 2h 2mn
Bit rate : 5 907 Kbps
Width : 1 280 pixels
Height : 692 pixels
Display aspect ratio : 1.85:1
Frame rate mode : Constant
Frame rate : 23.976 fps
Color space : YUV
Chroma subsampling : 4:2:0
Bit depth : 8 bits
Scan type : Progressive
Bits/(Pixel*Frame) : 0.278
Stream size : 5.07 GiB (74%)
Title : WSmit60 & CtrlHD
Writing library : x264 core 142 r2409+42 04be48a tMod [8-bit@all X86_64]
Encoding settings : cabac=1 / ref=9 / deblock=1:-3:-3 / analyse=0x3:0x113 / me=umh / subme=10 / psy=1 / fade_compensate=0.00 / psy_rd=1.05:0.00 / mixed_ref=1 / me_range=32 / chroma_me=1 / trellis=2 / 8x8dct=1 / cqm=0 / deadzone=21,11 / fast_pskip=0 / chroma_qp_offset=-2 / threads=6 / lookahead_threads=1 / sliced_threads=0 / nr=0 / decimate=0 / interlaced=0 / bluray_compat=0 / constrained_intra=0 / fgo=0 / bframes=9 / b_pyramid=2 / b_adapt=2 / b_bias=0 / direct=3 / weightb=1 / open_gop=0 / weightp=2 / keyint=250 / keyint_min=23 / scenecut=40 / intra_refresh=0 / rc_lookahead=60 / rc=crf / mbtree=0 / crf=18.0000 / qcomp=0.70 / qpmin=0:0:0 / qpmax=69:69:69 / qpstep=4 / vbv_maxrate=62500 / vbv_bufsize=78125 / crf_max=0.0 / nal_hrd=none / filler=0 / ip_ratio=1.30 / pb_ratio=1.20 / aq=1:0.80 / aq-sensitivity=10.00 / aq-factor=1.00:1.00:1.00 / aq2=0 / aq3=0
Language : English
Default : No
Forced : No
Audio #1
ID : 2
Format : AC-3
Format/Info : Audio Coding 3
Mode extension : CM (complete main)
Format settings, Endianness : Big
Codec ID : A_AC3
Duration : 2h 2mn
Bit rate mode : Constant
Bit rate : 192 Kbps
Channel(s) : 2 channels
Channel positions : Front: L R
Sampling rate : 48.0 KHz
Bit depth : 16 bits
Compression mode : Lossy
Stream size : 169 MiB (2%)
Title : MVO (Pozitiv) AC3 2.0 @ 192k
Language : Russian
Default : Yes
Forced : No
Audio #2
ID : 3
Format : DTS
Format/Info : Digital Theater Systems
Mode : 16
Format settings, Endianness : Big
Codec ID : A_DTS
Duration : 2h 2mn
Bit rate mode : Constant
Bit rate : 1 509 Kbps
Channel(s) : 6 channels
Channel positions : Front: L C R, Side: L R, LFE
Sampling rate : 48.0 KHz
Bit depth : 24 bits
Compression mode : Lossy
Stream size : 1.30 GiB (19%)
Title : ENG DTS 5.1 @ 1509k
Language : English
Default : No
Forced : No
Audio #3
ID : 4
Format : AC-3
Format/Info : Audio Coding 3
Mode extension : CM (complete main)
Format settings, Endianness : Big
Codec ID : A_AC3
Duration : 2h 2mn
Bit rate mode : Constant
Bit rate : 192 Kbps
Channel(s) : 2 channels
Channel positions : Front: L R
Sampling rate : 48.0 KHz
Bit depth : 16 bits
Compression mode : Lossy
Stream size : 169 MiB (2%)
Title : Commentary by Director Ari Folman AC3 2.0 @ 192k
Language : English
Default : No
Forced : No
Text #1
ID : 5
Format : UTF-8
Codec ID : S_TEXT/UTF8
Codec ID/Info : UTF-8 Plain Text
Title : Don_Leprikon v.1
Language : Russian
Default : No
Forced : No
Text #2
ID : 6
Format : UTF-8
Codec ID : S_TEXT/UTF8
Codec ID/Info : UTF-8 Plain Text
Title : Don_Leprikon v.2
Language : Russian
Default : No
Forced : No
Text #3
ID : 7
Format : UTF-8
Codec ID : S_TEXT/UTF8
Codec ID/Info : UTF-8 Plain Text
Language : English
Default : No
Forced : No
Text #4
ID : 8
Format : UTF-8
Codec ID : S_TEXT/UTF8
Codec ID/Info : UTF-8 Plain Text
Language : German
Default : No
Forced : No
Text #5
ID : 9
Format : UTF-8
Codec ID : S_TEXT/UTF8
Codec ID/Info : UTF-8 Plain Text
Language : French
Default : No
Forced : No
Text #6
ID : 10
Format : UTF-8
Codec ID : S_TEXT/UTF8
Codec ID/Info : UTF-8 Plain Text
Title : Commentary
Language : French
Default : No
Forced : No
Menu
00:00:00.000 : en:Chapter 1
00:07:11.348 : en:Chapter 2
00:14:15.938 : en:Chapter 3
00:24:30.886 : en:Chapter 4
00:33:46.942 : en:Chapter 5
00:44:18.990 : en:Chapter 6
00:53:34.336 : en:Chapter 7
00:58:42.769 : en:Chapter 8
01:05:55.577 : en:Chapter 9
01:12:22.755 : en:Chapter 10
01:20:34.288 : en:Chapter 11
01:29:51.845 : en:Chapter 12
01:38:05.171 : en:Chapter 13
01:47:20.184 : en:Chapter 14
01:56:56.009 : en:Chapter 15

Скриншоты




Показать сообщения:    

Текущее время: 09-Дек 22:26

Часовой пояс: UTC + 3


Вы не можете начинать темы
Вы не можете отвечать на сообщения
Вы не можете редактировать свои сообщения
Вы не можете удалять свои сообщения
Вы не можете голосовать в опросах
Вы не можете прикреплять файлы к сообщениям
Вы не можете скачивать файлы