Кто голодный? / Who's hungry? (Дэвид Окс / David Ochs) [2009, США, анимация, триллер, WEBRip]


 

[Цитировать]

Кто голодный? / Who's hungry?
Страна: США
Жанр: анимация, триллер
Год выпуска: 2009
Продолжительность: 00:05:01
Перевод: Не требуется
Cубтитры: нет
Режиссёр: Дэвид Окс / David Ochs
Описание: Стилизованная в традициях фильмов ужасов, детская страшилка про маньяка, который ворует детей, притворяясь продавцом мороженого.
Доп. информация: Работа студента Калифорнийского Института Искусств.
Качество видео: WEBRip
Формат видео: AVI
Видео: 876 kbps, 720х480 (3:2), 25.000 fps, MPEG-4 Visual (XviD)
Аудио: 128 kbps, 44.1 kHz, 2 channels, MPEG Audio (MP3)

MediaInfo

General
Complete name : Who is Hungry (2009).avi
Format : AVI
Format/Info : Audio Video Interleave
File size : 36.6 MiB
Duration : 5mn 1s
Overall bit rate : 1 017 Kbps
Writing application : Lavf55.33.100
Video
ID : 0
Format : MPEG-4 Visual
Format profile : Simple@L3
Format settings, BVOP : No
Format settings, QPel : No
Format settings, GMC : No warppoints
Format settings, Matrix : Default (H.263)
Codec ID : XVID
Codec ID/Hint : XviD
Duration : 5mn 1s
Bit rate : 876 Kbps
Width : 720 pixels
Height : 480 pixels
Display aspect ratio : 3:2
Frame rate : 25.000 fps
Standard : NTSC
Color space : YUV
Chroma subsampling : 4:2:0
Bit depth : 8 bits
Scan type : Progressive
Compression mode : Lossy
Bits/(Pixel*Frame) : 0.101
Stream size : 31.5 MiB (86%)
Writing library : XviD 64
Audio
ID : 1
Format : MPEG Audio
Format version : Version 1
Format profile : Layer 3
Mode : Joint stereo
Mode extension : MS Stereo
Codec ID : 55
Codec ID/Hint : MP3
Duration : 5mn 1s
Bit rate mode : Constant
Bit rate : 128 Kbps
Channel(s) : 2 channels
Sampling rate : 44.1 KHz
Compression mode : Lossy
Stream size : 4.61 MiB (13%)
Alignment : Aligned on interleaves
Interleave, duration : 26 ms (0.65 video frame)
Interleave, preload duration : 26 ms
Writing library : LAME3.99.5

Скриншот c названием фильма

Скриншоты




Показать сообщения:    

Текущее время: 04-Дек 13:13

Часовой пояс: UTC + 3


Вы не можете начинать темы
Вы не можете отвечать на сообщения
Вы не можете редактировать свои сообщения
Вы не можете удалять свои сообщения
Вы не можете голосовать в опросах
Вы не можете прикреплять файлы к сообщениям
Вы не можете скачивать файлы