Крыса сельская и Крыса городская / Le rat de ville et le rat des champs (Владислав Старевич / Ladislas Starevich) [1926, Франция, Мультфильм, TeleCine] Rus Sub


 

[Цитировать]

Крыса сельская и Крыса городская / Le rat de ville et le rat des champs
Страна: Франция
Жанр: Мультфильм
Продолжительность: 00:09:41
Год выпуска: 1926
Перевод: Отсутствует
Русские субтитры: есть
Режиссёр: В.А. Старевич / Ladislas Starevich
Описание: Экранизация одноимённой басни Жана де Лафонтена.
Как-то раз сельчанин Крыс решил навестить своего городского приятеля. Однако быстро убедился, что не так уж хороша жизнь в большом городе, казавшаяся поначалу столь красивой и сытной. Особенно, когда просыпается хозяйский кот!
Доп. информация: Было добавлено:
- Фоновая музыка (спасибо storm2!).
- Простенькие субтитры (русский перевод басни французскому оригиналу, конечно, соответствует лишь в общем по смыслу. Но тем не менее, хотя бы даёт представление о тексте на экране).
Создатель мультфильма: русский режиссёр Владислав Александрович Старевич, изобретатель кукольной мультипликации!
Качество: TeleCine
Формат: AVI
Видео: XviD, 544x400, 25 fps, ~1122 kbps
Аудио: MP3, 44100 Hz, 2 ch, 128 kbps
Интертитры: субтитры
Субтитры: Русские (softsub)

Подробные технические данные

Общее
Полное имя : W:\Ladislaw Starewicz - Le Rat des villes et le champs (1926) The Town Rat and the Country Rat\Ladislaw Starewicz - Le Rat des villes et le champs (1926) The Town Rat and the Country Rat.avi
Формат : AVI
Формат/Информация : Audio Video Interleave
Размер файла : 87,3 Мбайт
Продолжительность : 9 м. 41 с.
Общий поток : 1259 Кбит/сек
Программа кодирования : VirtualDubMod 1.4.13
Библиотека кодирования : VirtualDub build 32842/release
Видео
Идентификатор : 0
Формат : MPEG-4 Visual
Профиль формата : Simple@L3
Параметр BVOP формата : Нет
Параметр QPel формата : Нет
Параметр GMC формата : Без точки перехода
Параметр матрицы формата : Default (H.263)
Идентификатор кодека : XVID
Идентификатор кодека/Подсказка : XviD
Продолжительность : 9 м. 41 с.
Битрейт : 1122 Кбит/сек
Ширина : 544 пикселя
Высота : 400 пикселей
Соотношение сторон : 4:3
Частота кадров : 25,000 кадров/сек
Цветовое пространство : YUV
Субдискретизация насыщенности : 4:2:0
Битовая глубина : 8 бит
Тип развёртки : Прогрессивная
Метод сжатия : С потерями
Бит/(Пиксели*Кадры) : 0.206
Размер потока : 77,8 Мбайт (89%)
Библиотека кодирования : XviD 0.0.12 (UTC 2003-06-11)
Аудио
Идентификатор : 1
Формат : MPEG Audio
Версия формата : Version 1
Профиль формата : Layer 3
Режим : Joint stereo
Расширение режима : MS Stereo
Идентификатор кодека : 55
Идентификатор кодека/Подсказка : MP3
Продолжительность : 9 м. 41 с.
Вид битрейта : Постоянный
Битрейт : 128 Кбит/сек
Каналы : 2 канала
Частота : 44,1 КГц
Метод сжатия : С потерями
Размер потока : 8,85 Мбайт (10%)
Выравнивание : Разделение по промежуткам
Продолжительность промежутка : 40 мс. (1,00 видеокадр)
Время предзагрузки промежутка : 501 мс.

Скриншоты




Показать сообщения:    

Текущее время: 06-Дек 15:11

Часовой пояс: UTC + 3


Вы не можете начинать темы
Вы не можете отвечать на сообщения
Вы не можете редактировать свои сообщения
Вы не можете удалять свои сообщения
Вы не можете голосовать в опросах
Вы не можете прикреплять файлы к сообщениям
Вы не можете скачивать файлы