Лутц Даммбек / Lutz Dammbeck – Три анимационных фильма [1978-1986, Германия, авторская анимация, DVDRip] original + rus sub


 

[Цитировать]

Лутц Даммбек / Lutz Dammbeck – Три анимационных фильма
Лутц Дамбек - художник из Восточной Германии. С середины 70-тых делал на киностудии "DEFA" авторские анимационные фильмы. В 1986 переехал в Гамбург, в 1990 основал собственную студию. С 1992 преподавал в Университете прикладных наук Гамбурга, с 1998 - профессор Академии изящных искусств в Дрездене.
Живи / Lebe
Страна: ГДР
Жанр: авторская анимация
Год выпуска: 1978
Продолжительность: 00:09:54
Перевод: не требуется
Cубтитры: нет
Описание: История человека, мечтавшего о чём-то более духовном, но прожившего жизнь как все.
Качество видео: DVDRip
Формат видео: AVI
Видео: 759 kbps, 640х480 (4:3), 25.000 fps, MPEG-4 Visual (XviD)
Аудио: 128 kbps, 44.1 kHz, 2 channels, MPEG Audio (MP3)

MediaInfo

General
Complete name : Lebe (1978).avi
Format : AVI
Format/Info : Audio Video Interleave
File size : 63.7 MiB
Duration : 9mn 54s
Overall bit rate : 899 Kbps
Writing application : Lavf54.59.107
Video
ID : 0
Format : MPEG-4 Visual
Format profile : Simple@L1
Format settings, BVOP : No
Format settings, QPel : No
Format settings, GMC : No warppoints
Format settings, Matrix : Default (H.263)
Codec ID : XVID
Codec ID/Hint : XviD
Duration : 9mn 53s
Bit rate : 759 Kbps
Width : 640 pixels
Height : 480 pixels
Display aspect ratio : 4:3
Frame rate : 25.000 fps
Color space : YUV
Chroma subsampling : 4:2:0
Bit depth : 8 bits
Scan type : Progressive
Compression mode : Lossy
Bits/(Pixel*Frame) : 0.099
Stream size : 53.7 MiB (84%)
Writing library : Lavc54.86.100
Audio
ID : 1
Format : MPEG Audio
Format version : Version 1
Format profile : Layer 3
Mode : Joint stereo
Mode extension : MS Stereo
Codec ID : 55
Codec ID/Hint : MP3
Duration : 9mn 54s
Bit rate mode : Constant
Bit rate : 128 Kbps
Channel(s) : 2 channels
Sampling rate : 44.1 KHz
Compression mode : Lossy
Stream size : 9.06 MiB (14%)
Alignment : Aligned on interleaves
Interleave, duration : 26 ms (0.65 video frame)
Interleave, preload duration : 78 ms

Скриншот c названием фильма

Скриншоты

Портной из Ульма / Der Schneider von Ulm
Страна: ГДР
Жанр: авторская анимация
Год выпуска: 1979
Продолжительность: 00:13:49
Перевод: субтитры (alex.n42)
Субтитры: русские
Описание: Сюрреалистическая экранизация одноимённого стихотворения Бертольта Брехта, посвящённого реальному случаю, произошедшему в Ульме в 1592 году.
Качество видео: DVDRip
Формат видео: AVI
Видео: 766 kbps, 640х480 (4:3), 25.000 fps, MPEG-4 Visual (XviD)
Аудио: 128 kbps, 44.1 kHz, 2 channels, MPEG Audio (MP3)

MediaInfo

General
Complete name : Der Schneider von Ulm (1979).avi
Format : AVI
Format/Info : Audio Video Interleave
File size : 89.6 MiB
Duration : 13mn 49s
Overall bit rate : 906 Kbps
Writing application : Lavf54.59.107
Video
ID : 0
Format : MPEG-4 Visual
Format profile : Simple@L1
Format settings, BVOP : No
Format settings, QPel : No
Format settings, GMC : No warppoints
Format settings, Matrix : Default (H.263)
Codec ID : XVID
Codec ID/Hint : XviD
Duration : 13mn 49s
Bit rate : 766 Kbps
Width : 640 pixels
Height : 480 pixels
Display aspect ratio : 4:3
Frame rate : 25.000 fps
Color space : YUV
Chroma subsampling : 4:2:0
Bit depth : 8 bits
Scan type : Progressive
Compression mode : Lossy
Bits/(Pixel*Frame) : 0.100
Stream size : 75.8 MiB (85%)
Writing library : Lavc54.86.100
Audio
ID : 1
Format : MPEG Audio
Format version : Version 1
Format profile : Layer 3
Mode : Joint stereo
Mode extension : MS Stereo
Codec ID : 55
Codec ID/Hint : MP3
Duration : 13mn 49s
Bit rate mode : Constant
Bit rate : 128 Kbps
Channel(s) : 2 channels
Sampling rate : 44.1 KHz
Compression mode : Lossy
Stream size : 12.7 MiB (14%)
Alignment : Aligned on interleaves
Interleave, duration : 26 ms (0.65 video frame)
Interleave, preload duration : 78 ms

Скриншот c названием фильма

Скриншоты

Пример субтитров

1
00:00:17,000 --> 00:00:18,950
"Епископ, я могу летать" -
2
00:00:19,000 --> 00:00:20,890
Портной сказал епископу.
3
00:00:21,210 --> 00:00:23,110
"Посмотрите, как я это сделаю!"
4
00:00:24,020 --> 00:00:27,210
И он развернул сомодельную вещь,
Скроенную, как крылья,
5
00:00:28,230 --> 00:00:30,270
Стоя на высокой-высокой крыше церкви.
6
00:00:31,720 --> 00:00:33,000
Епископ прошёл мимо.
7
00:00:33,230 --> 00:00:39,510
"Это всё ложь, человек не птица,
Он никогда не будет летать" -
8
00:00:40,990 --> 00:00:42,400
Сказал епископ портному.
9
00:00:50,480 --> 00:00:56,350
Портной из Ульма
10
00:00:59,600 --> 00:01:04,290
Фильм по стихотворению Бертольта Брехта
Прилив / Die Flut
Страна: ГДР
Жанр: авторская анимация
Год выпуска: 1986
Продолжительность: 00:09:27
Перевод: не требуется
Субтитры: нет
Описание: Старая китайская притча, перенесённая в постапокалиптический антураж.
Два металлических человека на острове строят лодку, чтобы спастись от прибывающей воды.
Качество видео: DVDRip
Формат видео: AVI
Видео: 755 kbps, 640х480 (4:3), 25.000 fps, MPEG-4 Visual (XviD)
Аудио: 128 kbps, 44.1 kHz, 2 channels, MPEG Audio (MP3)

MediaInfo

General
Complete name : Die Flut (1986).avi
Format : AVI
Format/Info : Audio Video Interleave
File size : 60.6 MiB
Duration : 9mn 27s
Overall bit rate : 895 Kbps
Writing application : Lavf54.59.107
Video
ID : 0
Format : MPEG-4 Visual
Format profile : Simple@L1
Format settings, BVOP : No
Format settings, QPel : No
Format settings, GMC : No warppoints
Format settings, Matrix : Default (H.263)
Codec ID : XVID
Codec ID/Hint : XviD
Duration : 9mn 27s
Bit rate : 755 Kbps
Width : 640 pixels
Height : 480 pixels
Display aspect ratio : 4:3
Frame rate : 25.000 fps
Color space : YUV
Chroma subsampling : 4:2:0
Bit depth : 8 bits
Scan type : Progressive
Compression mode : Lossy
Bits/(Pixel*Frame) : 0.098
Stream size : 51.1 MiB (84%)
Writing library : Lavc54.86.100
Audio
ID : 1
Format : MPEG Audio
Format version : Version 1
Format profile : Layer 3
Mode : Joint stereo
Mode extension : MS Stereo
Codec ID : 55
Codec ID/Hint : MP3
Duration : 9mn 27s
Bit rate mode : Constant
Bit rate : 128 Kbps
Channel(s) : 2 channels
Sampling rate : 44.1 KHz
Compression mode : Lossy
Stream size : 8.66 MiB (14%)
Alignment : Aligned on interleaves
Interleave, duration : 26 ms (0.65 video frame)
Interleave, preload duration : 78 ms

Скриншот c названием фильма

Скриншоты




Показать сообщения:    

Текущее время: 05-Дек 17:30

Часовой пояс: UTC + 3


Вы не можете начинать темы
Вы не можете отвечать на сообщения
Вы не можете редактировать свои сообщения
Вы не можете удалять свои сообщения
Вы не можете голосовать в опросах
Вы не можете прикреплять файлы к сообщениям
Вы не можете скачивать файлы