Алоис Небель и его призраки / Alois Nebel (Томас Лунак / Tomas Lunak) [2011, Чехия, Германия, Драма, HDRip] MVO


 

[Цитировать]

Алоис Небель и его призраки / Alois Nebel- Страна: Чехия, Германия
Жанр: Драма
Год выпуска: 2011
Продолжительность: 01:21:14
Перевод: Профессиональный (многоголосый закадровый)
Cубтитры: нет
Оригинальная аудиодорожка: нет-Режиссер:
Томас Лунак / Tomas Lunak-В ролях:
Мирослав Кробот, Мари Людвикова, Леош Нога, Карел Роден, Алоис Швеглик, Ондржей Малый-Описание: Алоис Небель — скромный диспетчер на забытом Богом полустанке где-то на чешской границе. Вся его жизнь состоит из кормления кошки и ожидания поездов: прибытие — отправление… И уж точно никого не интересуют галлюцинации Алоиса Небеля. А между тем, они ужаснули бы любого психиатра. Однажды Алоис и герой его видений встречаются прямо на перроне…-Сэмпл | КиноПоиск | IMDb-Качество видео: HDRip | исх. [ Alois Nebel (2011) 720p BDRip. HDClub]
Формат видео: AVI
Видео: 704x400 (16:9), 23.976 fps, XviD build 65 ~2271 kbps avg, 0.336 bit/pixel
Аудио: 48.0 kHz, AC3 Dolby Digital, 2/0 (L,R) ch, ~192.00 kbps avg | MVO
Размер: 1497.87 Mb (1/3 DVD)
-

MediaInfo

Общее
Полное имя : A:\Фильмы\Alois.Nebel.2011-SbR.HDRip.XviD.1.46Gb.AC3.avi
Формат : AVI
Формат/Информация : Audio Video Interleave
Размер файла : 1,46 Гбайт
Продолжительность : 1 ч. 24 м.
Общий поток : 2472 Кбит/сек
Программа кодирования : VirtualDubMod 1.5.10.2 (build 2540/release)
Библиотека кодирования : VirtualDubMod build 2540/release
Видео
Идентификатор : 0
Формат : MPEG-4 Visual
Профиль формата : Advanced Simple@L5
Параметр BVOP формата : 1
Параметр QPel формата : Нет
Параметр GMC формата : Без точки перехода
Параметр матрицы формата : Выборочная
Идентификатор кодека : XVID
Идентификатор кодека/Подсказка : XviD
Продолжительность : 1 ч. 24 м.
Битрейт : 2271 Кбит/сек
Ширина : 704 пикселя
Высота : 400 пикселей
Соотношение сторон : 16:9
Частота кадров : 23,976 кадра/сек
Цветовое пространство : YUV
Субдискретизация насыщенности : 4:2:0
Битовая глубина : 8 бит
Тип развёртки : Прогрессивная
Метод сжатия : С потерями
Бит/(Пиксели*Кадры) : 0.336
Размер потока : 1,34 Гбайт (92%)
Библиотека кодирования : XviD 65
Аудио
Идентификатор : 1
Формат : AC-3
Формат/Информация : Audio Coding 3
Расширение режима : CM (complete main)
Параметр Endianness формата : Big
Идентификатор кодека : 2000
Продолжительность : 1 ч. 24 м.
Вид битрейта : Постоянный
Битрейт : 192 Кбит/сек
Каналы : 2 канала
Расположение каналов : Front: L R
Частота : 48,0 КГц
Битовая глубина : 16 бит
Метод сжатия : С потерями
Размер потока : 116 Мбайт (8%)
Выравнивание : Разделение по промежуткам
Продолжительность промежутка : 42 мс. (1,00 видеокадр)
Время предзагрузки промежутка : 500 мс.

Скриншот c названием фильма

Скриншоты




Показать сообщения:    

Текущее время: 03-Дек 09:49

Часовой пояс: UTC + 3


Вы не можете начинать темы
Вы не можете отвечать на сообщения
Вы не можете редактировать свои сообщения
Вы не можете удалять свои сообщения
Вы не можете голосовать в опросах
Вы не можете прикреплять файлы к сообщениям
Вы не можете скачивать файлы