Жилец / The Renter (Джейсон Карпентер / Jason Carpenter) [2011, США, авторская анимация, WEBRip]


 

[Цитировать]

Жилец / The Renter
Страна: США
Жанр: авторская анимация
Год выпуска: 2011
Продолжительность: 00:09:52
Перевод: Не требуется
Cубтитры: нет
Режиссёр: Джейсон Карпентер / Jason Carpenter
Описание: Мама оставляет мальчика на денёк погостить у бабушки за городом. Строгая старушка и мрачноватая незнакомая обстановка воспринимаются ребёнком весьма настороженно. А тут ещё какой-то подозрительный жилец, снимающий комнату в бабушкином доме, добавляет тревожности общей атмосфере...
Доп. информация:
Гран-при за лучший мультфильм на фестивале в Атланте (2011)
Гран-при на фестивале "Cinanima" в Эспинхо (2011)
Специальный приз жюри на фестивале в Брэдфорде (2011)
Приз за лучший студенческий фильм на фестивале в Оттаве (2011)
Качество видео: WEBRip
Формат видео: AVI
Видео: 1892 kbps, 720х400 (16:9), 23.976 fps, MPEG-4 Visual (XviD)
Аудио: 192 kbps, 48.0 kHz, 2 channels, AC-3

MediaInfo

General
Complete name : The Renter (2011).avi
Format : AVI
Format/Info : Audio Video Interleave
File size : 148 MiB
Duration : 9mn 52s
Overall bit rate : 2 093 Kbps
Writing application : VirtualDubMod 1.5.10.3 (build 2550/release)
Writing library : VirtualDubMod build 2550/release
Video
ID : 0
Format : MPEG-4 Visual
Format profile : Advanced Simple@L5
Format settings, BVOP : 2
Format settings, QPel : No
Format settings, GMC : No warppoints
Format settings, Matrix : Custom
Codec ID : XVID
Codec ID/Hint : XviD
Duration : 9mn 52s
Bit rate : 1 892 Kbps
Width : 720 pixels
Height : 400 pixels
Display aspect ratio : 16:9
Frame rate : 23.976 fps
Color space : YUV
Chroma subsampling : 4:2:0
Bit depth : 8 bits
Scan type : Progressive
Compression mode : Lossy
Bits/(Pixel*Frame) : 0.274
Stream size : 134 MiB (90%)
Writing library : XviD 65
Audio
ID : 1
Format : AC-3
Format/Info : Audio Coding 3
Mode extension : CM (complete main)
Format settings, Endianness : Big
Codec ID : 2000
Duration : 9mn 52s
Bit rate mode : Constant
Bit rate : 192 Kbps
Channel(s) : 2 channels
Channel positions : Front: L R
Sampling rate : 48.0 KHz
Bit depth : 16 bits
Compression mode : Lossy
Stream size : 13.6 MiB (9%)
Alignment : Split accross interleaves
Interleave, duration : 42 ms (1.00 video frame)
Interleave, preload duration : 500 ms

Скриншот c названием фильма

Скриншоты




Показать сообщения:    

Текущее время: 10-Дек 07:57

Часовой пояс: UTC + 3


Вы не можете начинать темы
Вы не можете отвечать на сообщения
Вы не можете редактировать свои сообщения
Вы не можете удалять свои сообщения
Вы не можете голосовать в опросах
Вы не можете прикреплять файлы к сообщениям
Вы не можете скачивать файлы