Бобби / Bobby Yeah (Роберт Морган / Robert Morgan) [2011, Великобритания, триллер, ужасы, сюрреализм, WEB-DL 1080p]


 

[Цитировать]

Bobby Yeah / Бобби
Страна: Великобритания
Жанр: триллер, ужасы, сюрреализм
Продолжительность: 23:18
Год выпуска: 2011
Перевод: Не требуется
Русские субтитры: нет
Режиссёр: Роберт Морган / Robert Morgan
Описание: Сюрреалистичный, отвратительный и тем не менее приковывающий внимание короткометражный кукольный мультфильм от Роберта Моргана - создателя таких известных короткометражек как "Кот с человеческими руками" и "Separation".
Сюжет у "Bobby Yeah" в принципе есть, но, с одной стороны, пересказать его без спойлеров не представляется возможным да он и простоват если проговаривать его словами, с другой стороны, в подобных короткометражках главное - создаваемая атмосфера, а с атмосферой у творения Моргана всё как всегда превосходно.
Однако, я бы не сказал что это можно смотреть широкому кругу зрителей.
Семпл: http://multi-up.com/876504
Качество: WEB-DL
Формат: MOV
Видео: AVC, 1920*1080, 25 fps, 20,6 Мбит/сек
Аудио: PCM, 48,0 КГц, 2 канала, 1536 Кбит/сек
Субтитры: отсутствуют

Подробные технические данные

ОбщееПолное имя : D:\Dropbox\фильмы\Bobby Yeah HD.movФормат : MPEG-4Профиль формата : QuickTimeИдентификатор кодека : qtРазмер файла : 3,61 ГбайтПродолжительность : 23 м.Общий поток : 22,2 Мбит/секДата кодирования : UTC 2011-11-23 20:29:00Дата пометки : UTC 2011-11-23 20:31:32Библиотека кодирования : Apple QuickTime
ВидеоИдентификатор : 2Формат : AVCФормат/Информация : Advanced Video CodecПрофиль формата : Main@L4.1Параметр CABAC формата : НетПараметр ReFrames формата : 2 кадраПараметр GOP формата : M=2, N=24Идентификатор кодека : avc1Идентификатор кодека/Информация : Advanced Video CodingПродолжительность : 23 м.Битрейт : 20,6 Мбит/секШирина : 1920 пикселейВысота : 1080 пикселейСоотношение сторон : 16:9Режим частоты кадров : ПостоянныйЧастота кадров : 25,000 кадров/секЦветовое пространство : YUVСубдискретизация насыщенности : 4:2:0Битовая глубина : 8 битТип развёртки : ПрогрессивнаяБит/(Пиксели*Кадры) : 0.398Размер потока : 3,36 Гбайт (93%)Язык : EnglishДата кодирования : UTC 2011-11-23 20:27:52Дата пометки : UTC 2011-11-23 20:31:32Основные цвета : BT.709Характеристики трансфера : BT.709Коэффициенты матрицы : BT.709
АудиоИдентификатор : 1Формат : PCMПараметр Endianness формата : LittleПараметр Sign формата : SignedИдентификатор кодека : sowtПродолжительность : 23 м.Вид битрейта : ПостоянныйБитрейт : 1536 Кбит/секКаналы : 2 каналаРасположение каналов : Front: L RЧастота : 48,0 КГцБитовая глубина : 16 битРазмер потока : 256 Мбайт (7%)Язык : EnglishДата кодирования : UTC 2011-11-23 20:27:52Дата пометки : UTC 2011-11-23 20:31:32

Скриншоты




Показать сообщения:    

Текущее время: 03-Дек 20:46

Часовой пояс: UTC + 3


Вы не можете начинать темы
Вы не можете отвечать на сообщения
Вы не можете редактировать свои сообщения
Вы не можете удалять свои сообщения
Вы не можете голосовать в опросах
Вы не можете прикреплять файлы к сообщениям
Вы не можете скачивать файлы