Свидание / The Date (Билл Плимптон / Bill Plympton) [2013, США, сарказм, гротеск, анимация, короткий метр, DVB] VO (Эгоист ТВ)


 

[Цитировать]

Свидание
The Date- Страна: США
Жанр: сарказм, гротеск, анимация, короткий метр
Год выпуска: 2013
Продолжительность: 00:01:15
Перевод: Студийный (одноголосый закадровый) Эгоист ТВ
Cубтитры: нет
Режиссер: Билл Плимптон / Bill Plympton
В ролях: анимация
Описание: Взгляд на свидание с мужчиной из глубины женского рта…
Доп. информация: Эгоист ТВ
Сэмпл: http://multi-up.com/968521
Качество видео: DVB-IPTV
Формат видео: MPEG-PS
Видео: MPEG Video 2, 720x576@1024x576 (16:9), 25 fps, ~2379 kbps avg, 0.229 bit/pixel
Аудио: 48 kHz, AC-3, 2 ch, ~192.00 kbps avg

MediaInfo

Полное имя : H:\My Torrents\[apreder]MINI_MOVIE_008\[apreder]MM_The_Date(2013)DVB.mpgФормат : MPEG-PSРазмер файла : 24,2 МбайтПродолжительность : 1 м. 17 с.Режим общего битрейта : ПеременныйОбщий поток : 2623 Кбит/сек
ВидеоИдентификатор : 224 (0xE0)Формат : MPEG VideoВерсия формата : Version 2Профиль формата : Main@MainПараметр BVOP формата : НетПараметр матрицы формата : По умолчаниюПараметр GOP формата : N=15Продолжительность : 1 м. 17 с.Вид битрейта : ПеременныйБитрейт : 2379 Кбит/секМаксимальный битрейт : 9000 Кбит/секШирина : 720 пикселейВысота : 576 пикселейСоотношение сторон : 16:9Частота кадров : 25,000 кадров/секСтандарт вещания : PALЦветовое пространство : YUVСубдискретизация насыщенности : 4:2:0Битовая глубина : 8 битТип развёртки : ПрогрессивнаяМетод сжатия : С потерямиБит/(Пиксели*Кадры) : 0.229Временной код первого кадра : 00:00:00:00Оригинал временного кода : Group of pictures headerРазмер потока : 21,9 Мбайт (91%)
АудиоИдентификатор : 189 (0xBD)-128 (0x80)Формат : AC-3Формат/Информация : Audio Coding 3Расширение режима : CM (complete main)Параметр Endianness формата : BigРежим смешивания : DVD-VideoПродолжительность : 1 м. 17 с.Вид битрейта : ПостоянныйБитрейт : 192 Кбит/секКаналы : 2 каналаРасположение каналов : Front: L RЧастота : 48,0 КГцБитовая глубина : 16 битМетод сжатия : С потерямиРазмер потока : 1,77 Мбайт (7%)

Скриншот c названием фильма

Скриншоты

Резервные скриншоты

-1'267/1'248√[-4]



Показать сообщения:    

Текущее время: 09-Дек 18:32

Часовой пояс: UTC + 3


Вы не можете начинать темы
Вы не можете отвечать на сообщения
Вы не можете редактировать свои сообщения
Вы не можете удалять свои сообщения
Вы не можете голосовать в опросах
Вы не можете прикреплять файлы к сообщениям
Вы не можете скачивать файлы