Конгресс / The Congress (Ари Фольман / Ari Folman) [2013, Израиль, Германия, Польша, Люксембург, Франция, Бельгия, фантастика, анимация, драма, DVDRip] MVO


 

[Цитировать]

Конгресс / The Congress
Страна: Израиль, Германия, Польша, Люксембург, Франция, Бельгия
Жанр: фантастика, анимация, драма
Год выпуска: 2013
Продолжительность: 01:57:48
Перевод: Профессиональный (многоголосый закадровый) - Фирма "Позитив" по заказу "Русский репортаж", 2014
Cубтитры: нет
Оригинальная аудиодорожка: нет
Режиссер: Ари Фольман / Ari Folman
В ролях: Робин Райт, Харви Кейтель, Джон Хэмм, Пол Джаматти, Коди Смит-МакФи, Дэнни Хьюстон, Сами Гэйл, Майкл Сталь-Дэвид, Майкл Лэндис, Сара Шахи
Описание: Стареющая безработная актриса соглашается на последнюю работу, не представляя себе последствий, которые повлечет за собой это решение…
Доп. информация:
Kinopoisk
IMDB
Сэмпл: http://multi-up.com/966237
Качество видео: DVDRip
Формат видео: AVI
Видео: Xvid 720x384 25fps 1 637 Kbps
Аудио: MP3 48000Hz stereo 128kbps

MediaInfo

General
Complete name : \Kongress.2013.DVDRip..avi
Format : AVI
Format/Info : Audio Video Interleave
File size : 1.46 GiB
Duration : 1h 57mn
Overall bit rate : 1 775 Kbps
Writing application : VirtualDubMod 1.5.10.2 (build 2540/release)
Writing library : VirtualDubMod build 2540/release
Video
ID : 0
Format : MPEG-4 Visual
Format profile : Advanced Simple@L5
Format settings, BVOP : Yes
Format settings, QPel : No
Format settings, GMC : No warppoints
Format settings, Matrix : Default (MPEG)
Codec ID : XVID
Codec ID/Hint : XviD
Duration : 1h 57mn
Bit rate : 1 637 Kbps
Width : 720 pixels
Height : 384 pixels
Display aspect ratio : 1.85:1
Frame rate : 25.000 fps
Color space : YUV
Chroma subsampling : 4:2:0
Bit depth : 8 bits
Scan type : Progressive
Compression mode : Lossy
Bits/(Pixel*Frame) : 0.237
Stream size : 1.35 GiB (92%)
Writing library : XviD 1.2.1 (UTC 2008-12-04)
Audio
ID : 1
Format : MPEG Audio
Format version : Version 1
Format profile : Layer 3
Mode : Joint stereo
Mode extension : MS Stereo
Codec ID : 55
Codec ID/Hint : MP3
Duration : 1h 57mn
Bit rate mode : Constant
Bit rate : 128 Kbps
Channel count : 2 channels
Sampling rate : 48.0 KHz
Compression mode : Lossy
Stream size : 108 MiB (7%)
Alignment : Aligned on interleaves
Interleave, duration : 40 ms (1.00 video frame)
Interleave, preload duration : 504 ms

Скриншот c названием фильма

Скриншоты




Показать сообщения:    

Текущее время: 04-Дек 02:56

Часовой пояс: UTC + 3


Вы не можете начинать темы
Вы не можете отвечать на сообщения
Вы не можете редактировать свои сообщения
Вы не можете удалять свои сообщения
Вы не можете голосовать в опросах
Вы не можете прикреплять файлы к сообщениям
Вы не можете скачивать файлы