Я в порядке, спасибо / I'm fine Thanks (Имонн О'Нилл / Eamonn O'Neill) [2011, Ирландия, авторская анимация, WEBRip] original + rus sub


 

[Цитировать]

Я в порядке, спасибо / I'm fine Thanks
Страна: Ирландия
Жанр: авторская анимация
Год выпуска: 2011
Продолжительность: 00:04:30
Перевод: субтитры (alex.n42)
Cубтитры: русские
Режиссёр: Имонн О'Нилл / Eamonn O'Neill
Описание: "Если я остановлюсь, я умру" - заявляет юный герой фильма. Но по мере взросления оптимизм у него убавляется. С годами его психика начинает подвергаться всё большему давлению. Детские психологические травмы, юношеские комплексы, эгоизм окружающих доводят неокрепшее сознание до нервного срыва.
Доп. информация: Награды:
Best Graduate Film - Ottawa International Animation Festival 2011
Best Animation - Darklight Film Festival 2011
Best Graduate Film - Expotoons 2011
Качество видео: WEBRip
Формат видео: AVI
Видео: 2357 kbps, 720х400 (16:9), 25.000 fps, MPEG-4 Visual (XviD)
Аудио: 128 kbps, 48.0 kHz, 2 channels, MPEG Audio (MP3)
Формат субтитров: softsub (SRT)

MediaInfo

General
Complete name : I'm fine Thanks (2011).avi
Format : AVI
Format/Info : Audio Video Interleave
File size : 80.6 MiB
Duration : 4mn 30s
Overall bit rate : 2 495 Kbps
Writing application : VirtualDubMod 1.5.10.3 (build 2550/release)
Writing library : VirtualDubMod build 2550/release
Video
ID : 0
Format : MPEG-4 Visual
Format profile : Advanced Simple@L5
Format settings, BVOP : 2
Format settings, QPel : No
Format settings, GMC : No warppoints
Format settings, Matrix : Custom
Codec ID : XVID
Codec ID/Hint : XviD
Duration : 4mn 30s
Bit rate : 2 357 Kbps
Width : 720 pixels
Height : 400 pixels
Display aspect ratio : 16:9
Frame rate : 25.000 fps
Color space : YUV
Chroma subsampling : 4:2:0
Bit depth : 8 bits
Scan type : Progressive
Compression mode : Lossy
Bits/(Pixel*Frame) : 0.327
Stream size : 76.1 MiB (94%)
Writing library : XviD 65
Audio
ID : 1
Format : MPEG Audio
Format version : Version 1
Format profile : Layer 3
Mode : Joint stereo
Mode extension : MS Stereo
Codec ID : 55
Codec ID/Hint : MP3
Duration : 4mn 30s
Bit rate mode : Constant
Bit rate : 128 Kbps
Channel(s) : 2 channels
Sampling rate : 48.0 KHz
Compression mode : Lossy
Stream size : 4.13 MiB (5%)
Alignment : Aligned on interleaves
Interleave, duration : 40 ms (1.00 video frame)
Interleave, preload duration : 504 ms
Writing library : LAME3.99r
Encoding settings : -m j -V 4 -q 3 -lowpass 17 -b 128

Скриншот c названием фильма

Скриншоты

Пример субтитров

1
00:00:01,000 --> 00:00:02,700
Я В ПОРЯДКЕ, СПАСИБО
2
00:00:04,670 --> 00:00:07,400
Если я остановлюсь, я умру.
3
00:00:07,780 --> 00:00:08,610
17 лет назад
4
00:00:43,000 --> 00:00:44,230
+ 3 года
5
00:00:54,710 --> 00:00:55,550
+ 4 года
6
00:01:07,630 --> 00:01:09,470
+ 10 лет
7
00:01:26,800 --> 00:01:30,820
Будешь моим другом?
Да V
8
00:01:52,070 --> 00:01:55,900
Всё же мы об этом поговорили,
но это не имело смысла.
9
00:01:55,950 --> 00:02:00,100
Я думаю, что мне это интересно,
но я не знаю, интересно ли ей.
Она знает, что я знаю...
10
00:02:12,790 --> 00:02:13,700
Ты в порядке.



Показать сообщения:    

Текущее время: 09-Дек 14:42

Часовой пояс: UTC + 3


Вы не можете начинать темы
Вы не можете отвечать на сообщения
Вы не можете редактировать свои сообщения
Вы не можете удалять свои сообщения
Вы не можете голосовать в опросах
Вы не можете прикреплять файлы к сообщениям
Вы не можете скачивать файлы