Помутнение / A Scanner Darkly (Ричард Линклейтер / Richard Linklater) [2006, США, мультфильм, фантастика, драма, криминал, HDRip-AVC] MVO (Пифагор) + Original Eng + Sub Rus, Eng


 

[Цитировать]

Помутнение / A Scanner Darkly Страна: США
Жанр: мультфильм, фантастика, драма, криминал
Год выпуска: 2006
Продолжительность: 01:40:25
Перевод: Профессиональный (многоголосый, закадровый) Студия Пифагор
Cубтитры: русские, английские
Оригинальная аудиодорожка: Английский
Режиссер: Ричард Линклейтер / Richard Linklater
В ролях: Киану Ривз, Роберт Дауни мл., Рори Кокрейн, Митч Бэйкер, Шон Аллен, Клифф Хейби, Стивен Честер Принц, Вайнона Райдер, Наташа Валдез, Марк Тернер, Вуди Харрельсон
Описание: Действие фильма разворачивается в недалеком будущем в округе Орандж, штат Калифорния. В эту эпоху, когда Америку окончательно захлестнул вал наркотиков, умами и телами людей завладела таинственная Субстанция Д, полностью разрушающая их психику. Главный герой ленты — тайный агент отдела полиции по борьбе с наркотиками Роберт Арктор, который в связи с характером своей деятельности тоже становится наркозависимым.
Однажды ему поручают шпионить за его друзьями: Джимом Баррисом, Эрни Лакманом, Донной Хоторн и Чарльзом Фреком. Ситуация еще более осложняется, когда Баррис начинает доносить на Арктора.

Качество видео: HDRip-AVC [BDRip 1080p]
Формат видео: MKV
Видео кодек: H264
Аудио кодек: AC3
Видео: 880x496 (1.77:1), 23.976 fps, ~1672 kbps avg, 0.16 bit/pixel
Аудио 1: 48 kHz, AC3 Dolby Digital, 2/0 (L,R) ch, ~192 kbps - Пифагор
Аудио 2: 48 kHz, AC3 Dolby Digital, 2/0 (L,R) ch, ~192 kbps - Оригинал

MediaInfo

Complete name : Pomutnenie.mkv
Format : Matroska
Format version : Version 4 / Version 2
File size : 1.44 GiB
Duration : 1h 40mn
Overall bit rate : 2 059 Kbps
Encoded date : UTC 2014-04-10 05:35:36
Writing application : mkvmerge v6.5.0 ('Isn't she lovely') built on Oct 20 2013 12:50:05
Writing library : libebml v1.3.0 + libmatroska v1.4.1
Video
ID : 1
Format : AVC
Format/Info : Advanced Video Codec
Format profile : High@L4.1
Format settings, CABAC : Yes
Format settings, ReFrames : 10 frames
Codec ID : V_MPEG4/ISO/AVC
Duration : 1h 40mn
Bit rate : 1 672 Kbps
Width : 880 pixels
Height : 496 pixels
Display aspect ratio : 16:9
Frame rate mode : Constant
Frame rate : 23.976 fps
Color space : YUV
Chroma subsampling : 4:2:0
Bit depth : 8 bits
Scan type : Progressive
Bits/(Pixel*Frame) : 0.160
Stream size : 1.15 GiB (79%)
Writing library : x264 core 130 r2273 b3065e6
Encoding settings : cabac=1 / ref=10 / deblock=1:-1:-1 / analyse=0x3:0x113 / me=umh / subme=10 / psy=1 / psy_rd=1.02:0.20 / mixed_ref=1 / me_range=32 / chroma_me=1 / trellis=2 / 8x8dct=1 / cqm=0 / deadzone=21,11 / fast_pskip=1 / chroma_qp_offset=-3 / threads=6 / lookahead_threads=1 / sliced_threads=0 / nr=0 / decimate=1 / interlaced=0 / bluray_compat=0 / constrained_intra=0 / bframes=12 / b_pyramid=2 / b_adapt=1 / b_bias=0 / direct=1 / weightb=1 / open_gop=0 / weightp=2 / keyint=250 / keyint_min=23 / scenecut=40 / intra_refresh=0 / rc_lookahead=50 / rc=2pass / mbtree=1 / bitrate=1672 / ratetol=1.0 / qcomp=0.60 / qpmin=0 / qpmax=69 / qpstep=4 / cplxblur=20.0 / qblur=0.5 / ip_ratio=1.40 / aq=1:0.90
Default : Yes
Forced : No
Audio #1
ID : 2
Format : AC-3
Format/Info : Audio Coding 3
Mode extension : CM (complete main)
Format settings, Endianness : Big
Codec ID : A_AC3
Duration : 1h 40mn
Bit rate mode : Constant
Bit rate : 192 Kbps
Channel(s) : 2 channels
Channel positions : Front: L R
Sampling rate : 48.0 KHz
Bit depth : 16 bits
Compression mode : Lossy
Stream size : 138 MiB (9%)
Language : Russian
Default : Yes
Forced : No
Audio #2
ID : 3
Format : AC-3
Format/Info : Audio Coding 3
Mode extension : CM (complete main)
Format settings, Endianness : Big
Codec ID : A_AC3
Duration : 1h 40mn
Bit rate mode : Constant
Bit rate : 192 Kbps
Channel(s) : 2 channels
Channel positions : Front: L R
Sampling rate : 48.0 KHz
Bit depth : 16 bits
Compression mode : Lossy
Stream size : 138 MiB (9%)
Language : English
Default : No
Forced : No
Text #1
ID : 4
Format : UTF-8
Codec ID : S_TEXT/UTF8
Codec ID/Info : UTF-8 Plain Text
Title : Rus
Language : Russian
Default : No
Forced : No
Text #2
ID : 5
Format : UTF-8
Codec ID : S_TEXT/UTF8
Codec ID/Info : UTF-8 Plain Text
Title : Eng
Language : English
Default : No
Forced : No
Menu
00:00:00.000 : :Chapter 01
00:03:53.232 : :Chapter 02
00:09:25.897 : :Chapter 03
00:12:29.749 : :Chapter 04
00:16:02.961 : :Chapter 05
00:20:27.726 : :Chapter 06
00:23:42.421 : :Chapter 07
00:28:11.356 : :Chapter 08
00:31:55.246 : :Chapter 09
00:34:58.596 : :Chapter 10
00:38:57.168 : :Chapter 11
00:41:32.489 : :Chapter 12
00:46:45.469 : :Chapter 13
00:49:32.636 : :Chapter 14
00:54:54.791 : :Chapter 15
00:58:35.178 : :Chapter 16
01:01:11.501 : :Chapter 17
01:06:54.677 : :Chapter 18
01:11:46.301 : :Chapter 19
01:16:08.229 : :Chapter 20
01:18:17.359 : :Chapter 21
01:25:35.130 : :Chapter 22
01:28:39.479 : :Chapter 23
01:33:41.782 : :Chapter 24
01:35:58.752 : :Chapter 25
01:36:53.807 : :Chapter 26
01:40:24.810 : :Chapter 27

Скриншоты




Показать сообщения:    

Текущее время: 05-Дек 13:29

Часовой пояс: UTC + 3


Вы не можете начинать темы
Вы не можете отвечать на сообщения
Вы не можете редактировать свои сообщения
Вы не можете удалять свои сообщения
Вы не можете голосовать в опросах
Вы не можете прикреплять файлы к сообщениям
Вы не можете скачивать файлы