Феликс Колгрэйв / Felix Colgrave – Три мультфильма [2012-2013, Австралия, авторская анимация, чёрный юмор, WEBRip-AVC]


 

[Цитировать]

Феликс Колгрэйв / Felix Colgrave – Три мультфильма
Феликс Колгрэйв - независимый мультипликатор из Австралии. Его фильмы способны слегка выносить мозг. Видимо, щадя зрителей, он делает их не очень продолжительными.
Хонк / Honk
Страна: Австралия
Жанр: авторская анимация, чёрный юмор
Год выпуска: 2012
Продолжительность: 00:00:57
Перевод: не требуется
Cубтитры: нет
Описание: Бомж притворяется лебедем, чтобы разжиться едой у влюблённой парочки, кормящей чаек.
(Словом "Honk" в английском языке обозначают крик лебедя).
Качество видео: WEBRip-AVC
Формат видео: MP4
Видео: 1273 kbps, 1280х702 (1.85:1), 24.000 fps, AVC (High@L3.1)
Аудио: 192 kbps, 44.1 kHz, 2 channels, AAC (LC)

MediaInfo

General
Complete name : Honk (2012).mp4
Format : MPEG-4
Format profile : Base Media / Version 2
Codec ID : mp42
File size : 10.1 MiB
Duration : 57s 770ms
Overall bit rate mode : Variable
Overall bit rate : 1 468 Kbps
Encoded date : UTC 2013-04-17 20:13:03
Tagged date : UTC 2013-04-17 20:13:03
gsst : 0
gstd : 57910
gssd : B4A7D6E4BMM1370101169577256
gshh : r11---sn-n8v7sn7e.c.youtube.com
Video
ID : 1
Format : AVC
Format/Info : Advanced Video Codec
Format profile : High@L3.1
Format settings, CABAC : Yes
Format settings, ReFrames : 1 frame
Codec ID : avc1
Codec ID/Info : Advanced Video Coding
Duration : 57s 750ms
Bit rate : 1 273 Kbps
Maximum bit rate : 3 277 Kbps
Width : 1 280 pixels
Height : 702 pixels
Display aspect ratio : 1.85:1
Frame rate mode : Constant
Frame rate : 24.000 fps
Color space : YUV
Chroma subsampling : 4:2:0
Bit depth : 8 bits
Scan type : Progressive
Bits/(Pixel*Frame) : 0.059
Stream size : 8.77 MiB (87%)
Tagged date : UTC 2013-04-17 20:13:13
Audio
ID : 2
Format : AAC
Format/Info : Advanced Audio Codec
Format profile : LC
Codec ID : 40
Duration : 57s 770ms
Bit rate mode : Variable
Bit rate : 192 Kbps
Maximum bit rate : 202 Kbps
Channel(s) : 2 channels
Channel positions : Front: L R
Sampling rate : 44.1 KHz
Compression mode : Lossy
Stream size : 1.32 MiB (13%)
Title : IsoMedia File Produced by Google, 5-11-2011
Encoded date : UTC 2013-04-17 20:13:09
Tagged date : UTC 2013-04-17 20:13:13

Скриншот c названием фильма

Скриншоты

Человек-спагетти / Man Spaghetti
Страна: Австралия
Жанр: авторская анимация
Год выпуска: 2012
Продолжительность: 00:01:55
Перевод: не требуется
Субтитры: нет
Описание: Необычный бой двух необычных гладиаторов.
Качество видео: WEBRip-AVC
Формат видео: MP4
Видео: 1440 kbps, 1280х702 (1.85:1), 24.000 fps, AVC (High@L3.1)
Аудио: 192 kbps, 44.1 kHz, 2 channels, AAC (LC)

MediaInfo

General
Complete name : Man Spaghetti (2012).mp4
Format : MPEG-4
Format profile : Base Media / Version 2
Codec ID : mp42
File size : 22.4 MiB
Duration : 1mn 55s
Overall bit rate mode : Variable
Overall bit rate : 1 635 Kbps
Encoded date : UTC 2013-04-16 11:29:33
Tagged date : UTC 2013-04-16 11:29:33
gsst : 0
gstd : 115216
gssd : B4A7D6E44MH1370100517189041
gshh : r4---sn-n8v7sn7e.c.youtube.com
Video
ID : 1
Format : AVC
Format/Info : Advanced Video Codec
Format profile : High@L3.1
Format settings, CABAC : Yes
Format settings, ReFrames : 1 frame
Codec ID : avc1
Codec ID/Info : Advanced Video Coding
Duration : 1mn 55s
Bit rate : 1 440 Kbps
Maximum bit rate : 3 915 Kbps
Width : 1 280 pixels
Height : 702 pixels
Display aspect ratio : 1.85:1
Frame rate mode : Constant
Frame rate : 24.000 fps
Color space : YUV
Chroma subsampling : 4:2:0
Bit depth : 8 bits
Scan type : Progressive
Bits/(Pixel*Frame) : 0.067
Stream size : 19.8 MiB (88%)
Tagged date : UTC 2013-04-16 11:29:36
Audio
ID : 2
Format : AAC
Format/Info : Advanced Audio Codec
Format profile : LC
Codec ID : 40
Duration : 1mn 55s
Bit rate mode : Variable
Bit rate : 192 Kbps
Maximum bit rate : 202 Kbps
Channel(s) : 2 channels
Channel positions : Front: L R
Sampling rate : 44.1 KHz
Compression mode : Lossy
Stream size : 2.63 MiB (12%)
Title : IsoMedia File Produced by Google, 5-11-2011
Encoded date : UTC 2013-04-16 11:29:35
Tagged date : UTC 2013-04-16 11:29:36

Скриншот c названием фильма

Скриншоты

Сад слонов / The Elephant's Garden
Страна: Австралия
Жанр: авторская анимация
Год выпуска: 2013
Продолжительность: 00:05:04
Перевод: не требуется
Субтитры: нет
Описание: Фантазия на тему восточной эзотерики.
Качество видео: WEBRip-AVC
Формат видео: MP4
Видео: 1319 kbps, 1280х720 (16:9), 24.000 fps, AVC (High@L3.1)
Аудио: 192 kbps, 44.1 kHz, 2 channels, AAC (LC)

MediaInfo

General
Complete name : The Elephant's Garden (2013).mp4
Format : MPEG-4
Format profile : Base Media / Version 2
Codec ID : mp42
File size : 54.9 MiB
Duration : 5mn 4s
Overall bit rate mode : Variable
Overall bit rate : 1 514 Kbps
Encoded date : UTC 2014-01-02 17:13:43
Tagged date : UTC 2014-01-02 17:13:43
gsst : 0
gstd : 304065
gssd : B4A7D6F66MH1388923121983893
gshh : r6---sn-n8v7sne7.googlevideo.com
Video
ID : 1
Format : AVC
Format/Info : Advanced Video Codec
Format profile : High@L3.1
Format settings, CABAC : Yes
Format settings, ReFrames : 1 frame
Codec ID : avc1
Codec ID/Info : Advanced Video Coding
Duration : 5mn 4s
Bit rate : 1 319 Kbps
Maximum bit rate : 7 065 Kbps
Width : 1 280 pixels
Height : 720 pixels
Display aspect ratio : 16:9
Frame rate mode : Constant
Frame rate : 24.000 fps
Color space : YUV
Chroma subsampling : 4:2:0
Bit depth : 8 bits
Scan type : Progressive
Bits/(Pixel*Frame) : 0.060
Stream size : 47.8 MiB (87%)
Tagged date : UTC 2014-01-02 17:13:45
Audio
ID : 2
Format : AAC
Format/Info : Advanced Audio Codec
Format profile : LC
Codec ID : 40
Duration : 5mn 4s
Bit rate mode : Variable
Bit rate : 192 Kbps
Maximum bit rate : 202 Kbps
Channel(s) : 2 channels
Channel positions : Front: L R
Sampling rate : 44.1 KHz
Compression mode : Lossy
Stream size : 6.96 MiB (13%)
Title : IsoMedia File Produced by Google, 5-11-2011
Encoded date : UTC 2014-01-02 17:13:44
Tagged date : UTC 2014-01-02 17:13:45

Скриншот c названием фильма

Скриншоты




Показать сообщения:    

Текущее время: 10-Дек 13:49

Часовой пояс: UTC + 3


Вы не можете начинать темы
Вы не можете отвечать на сообщения
Вы не можете редактировать свои сообщения
Вы не можете удалять свои сообщения
Вы не можете голосовать в опросах
Вы не можете прикреплять файлы к сообщениям
Вы не можете скачивать файлы