Лес / The Forest (Дэвид Шарф / David Scharf) [2009, анимация, короткий метр, DVDRip] VO


 

[Цитировать]

Лес / The Forest
Страна: Германия
Жанр: анимация, короткий метр
Продолжительность: 00:06:07
Год выпуска: 2009
Перевод: Одноголосый закадровый
Русские субтитры: нет
Режиссёр: Дэвид Шарф / David Scharf
Роли озвучивали: Мария Полежаева (Группа «Голоса»)
Описание: Коротенькая история о взаимоотношениях маленькой девочки и окружающего ее мира.
Качество: DVDRip
Формат: AVI
Видео: MPEG-4 Visual, 768x432, 16:9, 25.000 fps, 1 189 Kbps
Аудио: MPEG Audio, 128 Kbps, 44.1 KHz, 2 ch
Субтитры: отсутствуют

Подробные технические данные

ОбщееПолное имя : D:\Documents and Settings\Администратор\Рабочий стол\AIMPa TRACKS\Лес [The Forest] (2009)\sharf.les.2009.aviФормат : AVIФормат/Информация : Audio Video InterleaveРазмер файла : 58,1 МбайтПродолжительность : 6 м. 7 с.Общий поток : 1325 Кбит/секПрограмма кодирования : VirtualDubMod 1.5.10.2 (build 2540/release)Библиотека кодирования : VirtualDubMod build 2540/release
ВидеоИдентификатор : 0Формат : MPEG-4 VisualИдентификатор кодека : AP41Идентификатор кодека/Информация : Hack of MS MPEG-4 v3Идентификатор кодека/Подсказка : AngelPotionПродолжительность : 6 м. 7 с.Битрейт : 1189 Кбит/секШирина : 768 пикселейВысота : 432 пикселяСоотношение сторон : 16:9Частота кадров : 25,000 кадров/секЦветовое пространство : YUVСубдискретизация насыщенности : 4:2:0Метод сжатия : С потерямиБит/(Пиксели*Кадры) : 0.143Размер потока : 52,2 Мбайт (90%)
АудиоИдентификатор : 1Формат : MPEG AudioВерсия формата : Version 1Профиль формата : Layer 3Режим : Joint stereoРасширение режима : MS StereoИдентификатор кодека : 55Идентификатор кодека/Подсказка : MP3Продолжительность : 6 м. 0 с.Вид битрейта : ПостоянныйБитрейт : 128 Кбит/секКаналы : 2 каналаЧастота : 44,1 КГцМетод сжатия : С потерямиРазмер потока : 5,51 Мбайт (9%)Выравнивание : Разделение по промежуткамПродолжительность промежутка : 41 мс. (1,02 видеокадр)Время предзагрузки промежутка : 500 мс.

Скриншоты






Показать сообщения:    

Текущее время: 06-Дек 15:16

Часовой пояс: UTC + 3


Вы не можете начинать темы
Вы не можете отвечать на сообщения
Вы не можете редактировать свои сообщения
Вы не можете удалять свои сообщения
Вы не можете голосовать в опросах
Вы не можете прикреплять файлы к сообщениям
Вы не можете скачивать файлы