Дикая жизнь / Wild Life (Венди Тилби, Аманда Форбис / Wendy Tilby, Amanda Forbis) [2011, Канада, авторская анимация, WEB-DL 720p] original + rus sub


 

[Цитировать]

Дикая жизнь / Wild Life
Страна: Канада
Жанр: авторская анимация
Год выпуска: 2011
Продолжительность: 00:13:35
Перевод: субтитры (alex.n42)
Cубтитры: русские
Режиссёры: Венди Тилби, Аманда Форбис / Wendy Tilby, Amanda Forbis
Описание: В 1909 году щеголеватый молодой британец, подобно многим соотечественникам, отправляется на поиски "ковбойских" приключений в Канаду. Его неприспособленность к реальной жизни приводит к печальному финалу...
Авторы иронично сравнивают его жизнь с движением кометы.
Три премии «Rosie» 2012 (лучшая короткометражка, лучшая режиссура, лучший монтаж звука).
Номинация на «Oscar» 2012
Доп. информация: Видеофаил для релиза предоставил -Azureus-
Качество видео: WEB-DL 720p
Формат видео: MKV
Видео: 3923 kbps, 1280х720 (16:9), 23.976 fps, AVC (Main@L3.1)
Аудио: 384 kbps, 48.0 kHz, 16 bits, 6 channels, AC-3

MediaInfo

General
Unique ID : 186607916757487632097628693929120869030 (0x8C6360A227CF0475808291068495AAA6)
Complete name : Wild Life (2011).mkv
Format : Matroska
Format version : Version 4 / Version 2
File size : 427 MiB
Duration : 13mn 35s
Overall bit rate mode : Variable
Overall bit rate : 4 394 Kbps
Encoded date : UTC 2014-03-20 12:23:43
Writing application : mkvmerge v6.6.0 ('The Edge Of The In Between') built on Dec 1 2013 17:55:00
Writing library : libebml v1.3.0 + libmatroska v1.4.1
Video
ID : 1
Format : AVC
Format/Info : Advanced Video Codec
Format profile : Main@L3.1
Format settings, CABAC : Yes
Format settings, ReFrames : 5 frames
Codec ID : V_MPEG4/ISO/AVC
Duration : 13mn 35s
Bit rate mode : Variable
Bit rate : 3 923 Kbps
Maximum bit rate : 8 000 Kbps
Width : 1 280 pixels
Height : 720 pixels
Display aspect ratio : 16:9
Frame rate mode : Constant
Frame rate : 23.976 fps
Color space : YUV
Chroma subsampling : 4:2:0
Bit depth : 8 bits
Scan type : Progressive
Bits/(Pixel*Frame) : 0.178
Stream size : 382 MiB (89%)
Language : English
Default : Yes
Forced : No
Audio
ID : 2
Format : AC-3
Format/Info : Audio Coding 3
Mode extension : CM (complete main)
Format settings, Endianness : Big
Codec ID : A_AC3
Duration : 13mn 35s
Bit rate mode : Constant
Bit rate : 384 Kbps
Channel(s) : 6 channels
Channel positions : Front: L C R, Side: L R, LFE
Sampling rate : 48.0 KHz
Bit depth : 16 bits
Compression mode : Lossy
Stream size : 37.3 MiB (9%)
Default : Yes
Forced : No
Text
ID : 3
Format : UTF-8
Codec ID : S_TEXT/UTF8
Codec ID/Info : UTF-8 Plain Text
Default : Yes
Forced : No

Скриншот c названием фильма

Скриншоты

Пример субтитров

1
00:00:14,350 --> 00:00:22,350
Комета это смесь льда и пыли,
которой, по некоторым причинам,
не удалось стать частью планеты.
2
00:00:45,200 --> 00:00:47,170
Сейчас на заре двадцатого века,
3
00:00:47,260 --> 00:00:50,940
молодые люди из лучших семей
на всём протяжении этого могучего острова
4
00:00:51,010 --> 00:00:54,430
пересекают моря для приключений в Канаде!
5
00:00:54,620 --> 00:00:58,800
Вооруженные смелостью и порядочностью,
которые делают нашу Империю великой,
6
00:00:58,940 --> 00:01:01,840
эти молодые львы готовятся
сделать свои состояния в колониях,
7
00:01:01,920 --> 00:01:04,360
и пролить свет в культурную темноту.
8
00:01:05,140 --> 00:01:06,350
Удачи, ребята!
9
00:01:06,750 --> 00:01:09,100
Дикая Жизнь
10
00:01:20,320 --> 00:01:22,020
Ранчо, видишь ли...
11
00:01:22,580 --> 00:01:26,120
Вообразил себя ковбоем.
12
00:01:26,460 --> 00:01:29,030
Ну, чёрт с ним, может там он и сделает себя!



Показать сообщения:    

Текущее время: 03-Дек 20:39

Часовой пояс: UTC + 3


Вы не можете начинать темы
Вы не можете отвечать на сообщения
Вы не можете редактировать свои сообщения
Вы не можете удалять свои сообщения
Вы не можете голосовать в опросах
Вы не можете прикреплять файлы к сообщениям
Вы не можете скачивать файлы