Близнецы / Dvojičky / Twins (Петер Будинский / Peter Budinskȳ) [2011, Словакия, авторская анимация, WEBRip-AVC]


 

[Цитировать]

Близнецы / Dvojičky / Twins
Страна: Словакия
Жанр: авторская анимация
Год выпуска: 2011
Продолжительность: 00:05:26
Перевод: Не требуется
Cубтитры: нет
Режиссёр: Петер Будинский / Peter Budinskȳ
Описание: Герои этой необычной истории - сросшиеся головами сиамские близнецы (один - здоровяк, второй - хилый) - профессиональные боксёры.
Боксируют они между собой, и здоровяк, естественно, побеждает. Это неравноправие продолжается и вне ринга...
Доп. информация: 10 фестивальных наград
Качество видео: WEBRip-AVC
Формат видео: MP4
Видео: 2492 kbps, 1280х720 (16:9), 25.000 fps, AVC (High@L3.1)
Аудио: 150 kbps, 44.1 kHz, 2 channels, AAC (LC)

MediaInfo

General
Complete name : tWINs (2011).mp4
Format : MPEG-4
Format profile : Base Media
Codec ID : isom
File size : 103 MiB
Duration : 5mn 26s
Overall bit rate mode : Variable
Overall bit rate : 2 645 Kbps
Encoded date : UTC 2011-04-17 17:45:39
Tagged date : UTC 2011-04-18 17:45:40
Video
ID : 1
Format : AVC
Format/Info : Advanced Video Codec
Format profile : High@L3.1
Format settings, CABAC : Yes
Format settings, ReFrames : 4 frames
Codec ID : avc1
Codec ID/Info : Advanced Video Coding
Duration : 5mn 26s
Bit rate : 2 492 Kbps
Maximum bit rate : 6 063 Kbps
Width : 1 280 pixels
Height : 720 pixels
Display aspect ratio : 16:9
Frame rate mode : Constant
Frame rate : 25.000 fps
Color space : YUV
Chroma subsampling : 4:2:0
Bit depth : 8 bits
Scan type : Progressive
Bits/(Pixel*Frame) : 0.108
Stream size : 96.9 MiB (94%)
Writing library : Vimeo Encoder
Encoded date : UTC 2011-04-17 17:45:39
Tagged date : UTC 2011-04-17 17:45:40
Audio
ID : 2
Format : AAC
Format/Info : Advanced Audio Codec
Format profile : LC
Codec ID : 40
Duration : 5mn 26s
Bit rate mode : Variable
Bit rate : 150 Kbps
Maximum bit rate : 258 Kbps
Channel(s) : 2 channels
Channel positions : Front: L R
Sampling rate : 44.1 KHz
Compression mode : Lossy
Stream size : 5.81 MiB (6%)
Encoded date : UTC 2011-04-17 17:45:40
Tagged date : UTC 2011-04-17 17:45:40

Скриншот c названием фильма

Скриншоты




Показать сообщения:    

Текущее время: 05-Дек 21:37

Часовой пояс: UTC + 3


Вы не можете начинать темы
Вы не можете отвечать на сообщения
Вы не можете редактировать свои сообщения
Вы не можете удалять свои сообщения
Вы не можете голосовать в опросах
Вы не можете прикреплять файлы к сообщениям
Вы не можете скачивать файлы