Маленькая Лииди / Plekkmäe Liidi (Мати Кютт / Mati Kütt) [1995, Эстония, авторская анимация, VHSRip] original + rus sub


 

[Цитировать]

Маленькая Лииди / Plekkmäe Liidi
Страна: Эстония
Жанр: авторская анимация
Год выпуска: 1995
Продолжительность: 00:14:50
Перевод: субтитры (alex.n42)
Cубтитры: русские
Режиссёр: Мати Кютт / Mati Kütt
Описание: Шестилетняя Лииди обеспокоена тем, что взрослые пренебрежительно относятся к насекомым. Она пытается переубедить их научными фактами, и даже объявляет голодовку, но это не имеет должного результата. На следующее утро Лииди обнаруживает, что сама стала размером с насекомое...
Качество видео: VHSRip
Формат видео: AVI
Видео: 2316 kbps, 640х480 (4:3), 25.000 fps, MPEG-4 (XviD)
Аудио: 128 kbps, 48.0 kHz, 2 channels, MPEG Audio (MP3)
Формат субтитров: hardsub – english, softsub (SRT) - russian

MediaInfo

General
Complete name : Plekkmäe Liidi (1995).avi
Format : AVI
Format/Info : Audio Video Interleave
File size : 261 MiB
Duration : 14mn 50s
Overall bit rate : 2 457 Kbps
Writing application : Lavf54.59.107
Video
ID : 0
Format : MPEG-4 Visual
Format profile : Simple@L1
Format settings, BVOP : No
Format settings, QPel : No
Format settings, GMC : No warppoints
Format settings, Matrix : Default (H.263)
Codec ID : XVID
Codec ID/Hint : XviD
Duration : 14mn 50s
Bit rate : 2 316 Kbps
Width : 640 pixels
Height : 480 pixels
Display aspect ratio : 4:3
Frame rate : 25.000 fps
Color space : YUV
Chroma subsampling : 4:2:0
Bit depth : 8 bits
Scan type : Progressive
Compression mode : Lossy
Bits/(Pixel*Frame) : 0.302
Stream size : 246 MiB (94%)
Writing library : Lavc54.86.100
Audio
ID : 1
Format : MPEG Audio
Format version : Version 1
Format profile : Layer 3
Mode : Joint stereo
Mode extension : MS Stereo
Codec ID : 55
Codec ID/Hint : MP3
Duration : 14mn 50s
Bit rate mode : Constant
Bit rate : 128 Kbps
Channel(s) : 2 channels
Sampling rate : 48.0 KHz
Compression mode : Lossy
Stream size : 13.6 MiB (5%)
Alignment : Aligned on interleaves
Interleave, duration : 24 ms (0.60 video frame)
Interleave, preload duration : 72 ms

Скриншот c названием фильма

Скриншоты

Пример субтитров

1
00:00:09,640 --> 00:00:12,780
МАЛЕНЬКАЯ ЛИИДИ
2
00:02:30,430 --> 00:02:33,120
Посмотрим, как пойдут дела у хозяина сегодня.
3
00:02:39,970 --> 00:02:43,260
Эх! Я видела папины попытки летать столько раз,
что это наводит на меня скуку.
4
00:03:07,160 --> 00:03:10,950
Конечно, хотелось бы летать,
но я так боюсь высоты.
5
00:03:27,280 --> 00:03:30,230
Лииди! Скоро время обеда.
6
00:04:10,750 --> 00:04:11,870
Иди есть!
7
00:04:12,640 --> 00:04:15,200
Лииди, пора есть!
8
00:04:17,400 --> 00:04:19,720
Хозяин снова начал бить мух.
9
00:04:22,120 --> 00:04:24,640
Он и сам не может летать,
и другим летать не даёт.
10
00:04:28,200 --> 00:04:29,050
До свидания!
11
00:04:30,800 --> 00:04:31,720
Прощайте, месье!
12
00:05:06,750 --> 00:05:11,600
Я объявляю голодовку до тех пор,
пока папа не прекратит убивать мух.
13
00:05:20,420 --> 00:05:23,800
Почему бы их не убивать?
Они же паразиты.



Показать сообщения:    

Текущее время: 10-Дек 17:48

Часовой пояс: UTC + 3


Вы не можете начинать темы
Вы не можете отвечать на сообщения
Вы не можете редактировать свои сообщения
Вы не можете удалять свои сообщения
Вы не можете голосовать в опросах
Вы не можете прикреплять файлы к сообщениям
Вы не можете скачивать файлы