Лабиринт / Labürint (Мати Кютт / Mati Kütt) [1989, Эстония, авторская анимация, VHSRip]


 

[Цитировать]

Лабиринт / Labürint
Страна: Эстония
Жанр: авторская анимация
Год выпуска: 1989
Продолжительность: 00:08:38
Перевод: Не требуется
Cубтитры: нет
Режиссёр: Мати Кютт / Mati Kütt
Описание: Характерный для перестроечного времени сюрный мультфильм с тёмными коридорами, людьми, живущими в скворечниках, и прочими аллегориями.
Качество видео: VHSRip
Формат видео: AVI
Видео: 2245 kbps, 640х480 (4:3), 25.000 fps, MPEG-4 (XviD)
Аудио: 128 kbps, 48.0 kHz, 2 channels, MPEG Audio (MP3)

MediaInfo

General
Complete name : Labürint (1989).avi
Format : AVI
Format/Info : Audio Video Interleave
File size : 148 MiB
Duration : 8mn 38s
Overall bit rate : 2 386 Kbps
Writing application : Lavf54.59.107
Video
ID : 0
Format : MPEG-4 Visual
Format profile : Simple@L1
Format settings, BVOP : No
Format settings, QPel : No
Format settings, GMC : No warppoints
Format settings, Matrix : Default (H.263)
Codec ID : XVID
Codec ID/Hint : XviD
Duration : 8mn 38s
Bit rate : 2 245 Kbps
Width : 640 pixels
Height : 480 pixels
Display aspect ratio : 4:3
Frame rate : 25.000 fps
Color space : YUV
Chroma subsampling : 4:2:0
Bit depth : 8 bits
Scan type : Progressive
Compression mode : Lossy
Bits/(Pixel*Frame) : 0.292
Stream size : 139 MiB (94%)
Writing library : Lavc54.86.100
Audio
ID : 1
Format : MPEG Audio
Format version : Version 1
Format profile : Layer 3
Mode : Joint stereo
Mode extension : MS Stereo
Codec ID : 55
Codec ID/Hint : MP3
Duration : 8mn 38s
Bit rate mode : Constant
Bit rate : 128 Kbps
Channel(s) : 2 channels
Sampling rate : 48.0 KHz
Compression mode : Lossy
Stream size : 7.92 MiB (5%)
Alignment : Aligned on interleaves
Interleave, duration : 24 ms (0.60 video frame)
Interleave, preload duration : 72 ms

Скриншот c названием фильма

Скриншоты




Показать сообщения:    

Текущее время: 07-Дек 00:54

Часовой пояс: UTC + 3


Вы не можете начинать темы
Вы не можете отвечать на сообщения
Вы не можете редактировать свои сообщения
Вы не можете удалять свои сообщения
Вы не можете голосовать в опросах
Вы не можете прикреплять файлы к сообщениям
Вы не можете скачивать файлы