Чепурнас (Саша Свирский) [2013, Россия, авторская анимация, WEBRip-AVC]


 

[Цитировать]

Чепурнас
Страна: Россия
Жанр: авторская анимация
Год выпуска: 2013
Продолжительность: 00:10:11
Субтитры: нет
Режиссёр: Саша Свирский
Композиторы: Борис Долматов, Алексей Просвирнин
Описание: История жизни некоего потомственного лётчика, выполненная в стиле абсурдно-музыкального лубка с социально-политическими нотками.
Качество видео: WEBRip-AVC
Формат видео: MP4
Видео: 2217 kbps, 1280х720 (16:9), 25.000 fps, AVC (High@L3.1)
Аудио: 192 kbps, 44.1 kHz, 2 channels, AAC (LC)

MediaInfo

General
Complete name : Чепурнас (2013).mp4
Format : MPEG-4
Format profile : Base Media / Version 2
Codec ID : mp42
File size : 176 MiB
Duration : 10mn 11s
Overall bit rate mode : Variable
Overall bit rate : 2 411 Kbps
Encoded date : UTC 2014-01-30 09:06:01
Tagged date : UTC 2014-01-30 09:06:01
gsst : 0
gstd : 611821
gssd : B4A7D6EC4HH1391520351588997
gshh : r4---sn-n8v7sn76.googlevideo.com
Video
ID : 1
Format : AVC
Format/Info : Advanced Video Codec
Format profile : High@L3.1
Format settings, CABAC : Yes
Format settings, ReFrames : 1 frame
Codec ID : avc1
Codec ID/Info : Advanced Video Coding
Duration : 10mn 11s
Bit rate : 2 217 Kbps
Maximum bit rate : 13.0 Mbps
Width : 1 280 pixels
Height : 720 pixels
Display aspect ratio : 16:9
Frame rate mode : Constant
Frame rate : 25.000 fps
Color space : YUV
Chroma subsampling : 4:2:0
Bit depth : 8 bits
Scan type : Progressive
Bits/(Pixel*Frame) : 0.096
Stream size : 162 MiB (92%)
Tagged date : UTC 2014-01-30 09:06:26
Audio
ID : 2
Format : AAC
Format/Info : Advanced Audio Codec
Format profile : LC
Codec ID : 40
Duration : 10mn 11s
Bit rate mode : Variable
Bit rate : 192 Kbps
Maximum bit rate : 201 Kbps
Channel(s) : 2 channels
Channel positions : Front: L R
Sampling rate : 44.1 KHz
Compression mode : Lossy
Stream size : 14.0 MiB (8%)
Title : IsoMedia File Produced by Google, 5-11-2011
Encoded date : UTC 2014-01-30 09:06:17
Tagged date : UTC 2014-01-30 09:06:26

Скриншот c названием фильма

Скриншоты




Показать сообщения:    

Текущее время: 02-Дек 21:14

Часовой пояс: UTC + 3


Вы не можете начинать темы
Вы не можете отвечать на сообщения
Вы не можете редактировать свои сообщения
Вы не можете удалять свои сообщения
Вы не можете голосовать в опросах
Вы не можете прикреплять файлы к сообщениям
Вы не можете скачивать файлы