Идут дни / Idu dani (Неделько Драгич / Nedeljko Dragić) [1969, Югославия, авторская анимация, VHSRip]


 

[Цитировать]

Идут дни / Idu dani
Страна: Югославия
Жанр: авторская анимация
Год выпуска: 1969
Продолжительность: 00:09:55
Перевод: Не требуется
Cубтитры: нет
Режиссёр: Неделько Драгич / Nedeljko Dragić
Описание: Сатирический мультфильм, образно показывающий жизнь среднего человека. Изменяющая жена, агрессивные полицейские, наглые политики и торговцы… Неприятности подстерегают на каждом шагу. А дни идут.
Качество видео: VHSRip
Формат видео: AVI
Видео: 694 kbps, 640х480 (4:3), 24.000 fps, MPEG-4 Visual (XviD)
Аудио: 128 kbps, 44.1 kHz, 2 channels, MPEG Audio (MP3)

MediaInfo

General
Complete name : Idu dani (1969).avi
Format : AVI
Format/Info : Audio Video Interleave
File size : 59.2 MiB
Duration : 9mn 55s
Overall bit rate : 834 Kbps
Writing application : Lavf54.29.105
Video
ID : 0
Format : MPEG-4 Visual
Format profile : Simple@L1
Format settings, BVOP : No
Format settings, QPel : No
Format settings, GMC : No warppoints
Format settings, Matrix : Default (H.263)
Codec ID : XVID
Codec ID/Hint : XviD
Duration : 9mn 55s
Bit rate : 694 Kbps
Width : 640 pixels
Height : 480 pixels
Display aspect ratio : 4:3
Frame rate : 24.000 fps
Color space : YUV
Chroma subsampling : 4:2:0
Bit depth : 8 bits
Scan type : Progressive
Compression mode : Lossy
Bits/(Pixel*Frame) : 0.094
Stream size : 49.3 MiB (83%)
Writing library : Lavc54.63.100
Audio
ID : 1
Format : MPEG Audio
Format version : Version 1
Format profile : Layer 3
Mode : Joint stereo
Codec ID : 55
Codec ID/Hint : MP3
Duration : 9mn 55s
Bit rate mode : Constant
Bit rate : 128 Kbps
Channel(s) : 2 channels
Sampling rate : 44.1 KHz
Compression mode : Lossy
Stream size : 9.08 MiB (15%)
Alignment : Aligned on interleaves
Interleave, duration : 26 ms (0.63 video frame)
Interleave, preload duration : 25 ms
Writing library : LAME3.99.5

Скриншот c названием фильма

Скриншоты




Показать сообщения:    

Текущее время: 11-Дек 07:14

Часовой пояс: UTC + 3


Вы не можете начинать темы
Вы не можете отвечать на сообщения
Вы не можете редактировать свои сообщения
Вы не можете удалять свои сообщения
Вы не можете голосовать в опросах
Вы не можете прикреплять файлы к сообщениям
Вы не можете скачивать файлы