День рождения / Sünnipäev (Янно Пылдма / Janno Põldma) [1994, Эстония, авторская анимация, VHSRip]


 

[Цитировать]

День рождения / Sünnipäev
Страна: Эстония
Жанр: авторская анимация
Год выпуска: 1994
Продолжительность: 00:10:00
Перевод: не требуется
Cубтитры: нет
Режиссёр: Янно Пылдма / Janno Põldma
Описание: Иногда день рождения – грустный праздник, даже если он приходится на Рождество. Пока гости поедают угощение и веселятся, сражаясь с бандитствующими эльфами, маленький зеленолицый именинник чувствует себя очень одиноко. И вот с ножиком в руке он уходит на улицу…
Доп. информация: Фильм создан по рисункам детей.
Янно Пылдма говорит, что образ именинника автобиографичен, а в образе оптимистичного поросёнка выведен его друг и коллега Прийт Пярн.
Качество видео: VHSRip
Формат видео: AVI
Видео: 1978 kbps, 640х480 (4:3), 25.000 fps, MPEG-4 Visual (XviD)
Аудио: 128 kbps, 48.0 kHz, 2 channels, MPEG Audio (MP3)

MediaInfo

Общее
Полное имя : Sünnipäev (1994).avi
Формат : AVI
Формат/Информация : Audio Video Interleave
Размер файла : 152 Мбайт
Продолжительность : 10 м.
Общий поток : 2119 Кбит/сек
Программа кодирования : Lavf54.59.107
Видео
Идентификатор : 0
Формат : MPEG-4 Visual
Профиль формата : Simple@L1
Параметр BVOP формата : Нет
Параметр QPel формата : Нет
Параметр GMC формата : Без точки перехода
Параметр матрицы формата : Default (H.263)
Идентификатор кодека : XVID
Идентификатор кодека/Подсказка : XviD
Продолжительность : 10 м.
Битрейт : 1978 Кбит/сек
Ширина : 640 пикселей
Высота : 480 пикселей
Соотношение сторон : 4:3
Частота кадров : 25,000 кадров/сек
Цветовое пространство : YUV
Субдискретизация насыщенности : 4:2:0
Битовая глубина : 8 бит
Тип развёртки : Прогрессивная
Метод сжатия : С потерями
Бит/(Пиксели*Кадры) : 0.258
Размер потока : 142 Мбайт (93%)
Библиотека кодирования : Lavc54.86.100
Аудио
Идентификатор : 1
Формат : MPEG Audio
Версия формата : Version 1
Профиль формата : Layer 3
Режим : Joint stereo
Расширение режима : MS Stereo
Идентификатор кодека : 55
Идентификатор кодека/Подсказка : MP3
Продолжительность : 10 м.
Вид битрейта : Постоянный
Битрейт : 128 Кбит/сек
Каналы : 2 канала
Частота : 48,0 КГц
Метод сжатия : С потерями
Размер потока : 9,16 Мбайт (6%)
Выравнивание : Соединение по промежуткам
Продолжительность промежутка : 24 мс. (0,60 видеокадр)
Время предзагрузки промежутка : 72 мс.

Скриншот c названием фильма

Скриншоты




Показать сообщения:    

Текущее время: 09-Дек 16:37

Часовой пояс: UTC + 3


Вы не можете начинать темы
Вы не можете отвечать на сообщения
Вы не можете редактировать свои сообщения
Вы не можете удалять свои сообщения
Вы не можете голосовать в опросах
Вы не можете прикреплять файлы к сообщениям
Вы не можете скачивать файлы