Страх(и) темноты / Peur(s) du noir / Fear(s) of the Dark (Блатч / Blutch, Чарльз Бернс / Charles Burns и др.) [2007, ужасы, драма, мистика, детектив, DVDRip] original + sub


 

[Цитировать]

Peur(s) du noir / Fear(s) of the Dark / Страх(и) темноты
Страна: Франция
Жанр: ужасы, драма, мистика, детектив, анимация
Год выпуска: 2007
Продолжительность: 01:19:02
Режиссеры: Блатч / Blutch, Чарльз Бернс / Charles Burns, Мари Кайу / Marie Caillou, Пьер ди Сиулло / Pierre Di Sciullo, Лоренцо Маттотти / Lorenzo Mattotti, Ричард МакГуайр / Richard McGuire
Кинокомпании: Prima Linea Productions, La Parti Productions, SCOPE Invest
В ролях (роли озвучивали?): Джил Альма, Ауре Атика, Франсуа Кретон, Гийом Депардье, Nicolas Feroumont, Николь Гарсия, Артур Х.-Оригинальная аудиодорожка: Французская (French)
Озвучка: отсутствует
Перевод: субтитры (русские, внешние)
Описание:
"Дети боятся темноты — но и многие взрослые боятся тоже. Темнота лишает нас зрения и мы можем увидеть в темноте то, что боимся даже называть и о чём не перестаём думать в самых отдалённых уголках сознания — свои самые страшные кошмары.
Уникальный анимационный проект, объединивший лучших художников в жанре комиксов. Впервые им было предложено «выложить» на кинопленку мурашки по коже, обнаженные нервы и дрожь потных рук — все, что связано с самым древним человеческим страхом — страхом темноты.
Прикосновение паучьих лапок, странные звуки в пустом доме, ощущение чужого присутствия и собачий вой в тишине ночи… Стильный черно-белый кошмар, который не стоит смотреть в одиночестве на сон грядущий".

Официальный сайт
IMDb
-
Качество видео: DVDRip
Контейнер видео: avi
Видео: XviD, 704x400, 25.000 fps, 1520 kbps
Аудио: French, mp3, 48000Hz, 2ch, 192 kbps
Субтитры: русские, full, внешние (софтсаб), srt

Отличия от существующих раздач

[http://teatrix.ru/viewtopic.php?t=5124 – оригинальное аудио, лучшее качество видео

Подробные тех. данные

Общее
Полное имя : D:\Peur(s) du Noir (2007, DVDRip)\Peur(s) du Noir.avi
Формат : AVI
Формат/Информация : Audio Video Interleave
Размер файла : 973 Мбайт
Продолжительность : 1 ч. 19 м.
Общий поток : 1722 Кбит/сек
Программа кодирования : VirtualDubMod 1.5.10.2 (build 2542/release)
Библиотека кодирования : VirtualDubMod build 2542/release
Видео
Идентификатор : 0
Формат : MPEG-4 Visual
Профиль формата : Advanced Simple@L5
Параметр BVOP формата : 1
Параметр QPel формата : Нет
Параметр GMC формата : Без точки перехода
Параметр матрицы формата : Default (H.263)
Идентификатор кодека : XVID
Идентификатор кодека/Подсказка : XviD
Продолжительность : 1 ч. 19 м.
Битрейт : 1520 Кбит/сек
Ширина : 704 пикселя
Высота : 400 пикселей
Соотношение сторон : 16:9
Частота кадров : 25,000 кадров/сек
Цветовое пространство : YUV
Субдискретизация насыщенности : 4:2:0
Битовая глубина : 8 бит
Тип развёртки : Прогрессивная
Метод сжатия : С потерями
Бит/(Пиксели*Кадры) : 0.216
Размер потока : 859 Мбайт (88%)
Библиотека кодирования : XviD 1.1.2 (UTC 2006-11-01)
Аудио
Идентификатор : 1
Формат : MPEG Audio
Версия формата : Version 1
Профиль формата : Layer 3
Режим : Joint stereo
Идентификатор кодека : 55
Идентификатор кодека/Подсказка : MP3
Продолжительность : 1 ч. 19 м.
Вид битрейта : Постоянный
Битрейт : 192 Кбит/сек
Каналы : 2 канала
Частота : 48,0 КГц
Метод сжатия : С потерями
Размер потока : 109 Мбайт (11%)
Выравнивание : Соединение по промежуткам
Продолжительность промежутка : 40 мс. (1,00 видеокадр)
Время предзагрузки промежутка : 504 мс.

Скриншоты

Скринлист




Показать сообщения:    

Текущее время: 08-Дек 01:17

Часовой пояс: UTC + 3


Вы не можете начинать темы
Вы не можете отвечать на сообщения
Вы не можете редактировать свои сообщения
Вы не можете удалять свои сообщения
Вы не можете голосовать в опросах
Вы не можете прикреплять файлы к сообщениям
Вы не можете скачивать файлы